&title=Gregorius
&artist=mistukiyo
&first=0
&des=玩碧蓝档案玩的
&lv_7=是总力战害了他
&inote_5=(165){1},
{16}1b,8,7,,1,8,7,,1,8,7,,1,8,7,,
{16}3,5,4,,6,4,5,,4,6,5,,7,5,6,,
{16}7,6,4,,7,6,3,,7,6,4,,7,6,3,,
{16}4,5,4,5,3,4,3,4,2,3,4,5,4,5,6,7,
{16}8-4[12:1],,,,,,3,3,2/8-4[12:1],,,,,,1,1,
{16}6/8-4[12:1],,,,,,7,7,2/8-4[12:1],,,,1b,,,,
{16}2,3,2,3,2,3,2,,7,6,7,6,7<2[4:1],6,7,,
{16}1h[2:1],,,,,,,,8,7,6,5,4,3,2,1,
{16}8/4,5,6,7,5,6,7,8,6,7,8,1,7,8,1,2,
{16}8b-4[8:8],,,,7b,,,,1b,,,,6b,,,,
{16}2b,,,,5b,,,,2b,3,4,5,3,4,3,4,
{16}2,3,4,5,3,4,3,4,2,3,4,5,3,4,3,4,
{16}2,3,4,5,3,4,3,4,2,3,4,5,3,4,3,4,
{16}2,3,4,5,3,4,3,4,2,3,4,5,3,4,3,4,
{16}2,3,4,5,3,4,3,4,3,2,5,6,2,1,6,7,
{16}3,2,5,6,2,1,6,7,2,3,8,7,3,4,7,6,
{16}2,3,8,7,3,4,7,6,3,2,5,6,2,1,6,7,
{16}3,2,5,6,2,1,6,7,2,3,4,5,3,4,5,6,
{16}2,3,4,5,3,4,5,6,7b,6,5,4,6,5,6,5,
{16}7,6,5,4,6,5,6,5,7,6,5,4,6,5,6,5,
{16}7,6,5,4,6,5,6,5,7,6,5,4,6,5,6,5,
{16}7,6,5,4,6,5,6,5,7,6,5,4,6,5,6,5,
{16}7,6,5,4,6,5,6,5,6,7,4,3,7,8,3,2,
{16}6,7,4,3,7,8,3,2,7,6,1,2,6,5,2,3,
{16}7,6,1,2,6,5,2,3,6,7,4,3,7,8,3,2,
{16}6,7,4,3,7,8,3,2,7,6,5,4,6,5,4,3,
{16}7,6,5,4,6,5,4,3,1z5[8:3]/2s6[8:3],,,,,,,,
{16},,,,4-1[8:1]/5-8[8:1],,,,45,,,,8s4[8:3]/7z3[8:3],,,,
{16},,,,,,,,4-8[8:1]/5-1[8:1],,,,45,,,,
{16}2z6[8:3]/3s7[8:3],,,,,,,,,,,,5-2[8:1]/8-3[8:1],,,,
{16}58,,,,1s5[8:3]/4z8[8:3],,,,,,,,,,,,
{16}1v3[8:1]/4v2[8:1],,,,1-6[8:1]/4-7[8:1],,,,1b/4b,,,,8,5,8,5,
{16}7,6,7,6,5,6,5,6,5,8,5,8,6,7,6,7,
{16}1,4,1,4,2,3,2,3,4,3,4,3,4,1,4,1,
{16}3,2,3,2,8,5,8,5,7,6,7,6,5,6,5,6,
{16}5,8,5,8,6,7,6,7,1,4,1,4,2,3,2,3,
{16}4,3,4,3,5b-1[8:1],,,,5b/7bw3[8:1],,,,7b,,,,
{24}1,2,3,4,5,6,8,7,6,5,4,3,1,8,7,6,5,4,1,8,7,6,5,4,
{24}8,1,2,3,4,5,1,8,7,6,5,4,7,6,5,4,3,2,7,6,5,4,3,2,
{24}4,3,2,4,3,2,4,3,2,4,3,2,4,3,2,4,3,2,4,3,2,4,3,2,
{24}7,6,5,7,6,5,7,6,5,7,6,5,7,6,5,7,6,5,7,6,5,7,6,5,
{24}3,4,5,4,3,4,5,4,3,4,5,4,3,4,5,4,3,4,5,4,3,4,5,4,
{24}6,5,4,5,6,5,4,5,6,5,4,5,6,5,4,5,6,5,4,5,6,5,4,5,
{12}8b,1,1,1,1,1,1,1,1,1,1,1,6-1[12:1]/2-6[12:1],,,2b/6b,,,
{48}1b/8b,2b/7b,3b/6b,4b/5b,,,,,,,,,,,,
{16},,,,,,,,,,,,,,,,
{16},,,,,,,,,,,,,,,,
{16},,,,,,,,,,,,,,,,
{16},,,,,,,,,,,,,,,8-5[128:111]*^2[128:29]/2?v3[85#124:19]/3?^5[53#128:9],
{16},,,,,,,,,,,,,,,,
{16},,,,,,,2h[4:1]/3V15[8:6],,,,,,,,,
{16},,,,,,,,,,,,,,,,
&inote_6=(165){1},
{16}1b,8,7,,1,8,7,,1,8,7,,1,8,7,,
{16}3,5,4,,6,4,5,,4,6,5,,7,5,6,,
{16}7,6,4,,7,6,3,,7,6,4,,7,6,3,,
{16}4,5,4,5,3,4,3,4,2,3,4,5,4,5,6,7,
{16}8-4[12:1],,,,,,3,3,2/8-4[12:1],,,,,,1,1,
{16}6/8-4[12:1],,,,,,7,7,2/8-4[12:1],,,,1b,,,,
{16}2,3,2,3,2,3,2,,7,6,7,6,7<2[4:1],6,7,,
{16}1h[2:1],,,,,,,,8,7,6,5,4,3,2,1,
{16}8/4,5,6,7,5,6,7,8,6,7,8,1,7,8,1,2,
{16}8b-4[8:8],,,,7b,,,,1b,,,,6b,,,,
{16}2b,,,,5b,,,,2b,1,2,1,8,3,8,3,
{16}2,1,2,1,8,3,8,3,2,1,2,1,8,3,8,3,
{16}2,1,2,1,8,3,8,3,2,1,2,1,8,3,8,3,
{16}2,1,2,1,8,3,8,3,2,1,2,1,8,3,8,3,
{16}2,1,2,1,8,3,8,3,2,1,2,1,8,3,8,3,
{16}4,7,4,7,6,5,6,5,7,8,7,8,1,6,1,6,
{16}5,2,5,2,3,4,3,4,2,1,2,1,8,3,8,3,
{16}4,7,4,7,6,5,6,5,7,8,7,8,1,6,1,6,
{16}5,2,5,2,3,4,3,4,7b,6,5,4,6,5,6,5,
{16}7,6,5,4,6,5,6,5,7,6,5,4,6,5,6,5,
{16}7,6,5,4,6,5,6,5,7,6,5,4,6,5,6,5,
{16}7,6,5,4,6,5,6,5,7,6,5,4,6,5,6,5,
{16}7,6,5,4,6,5,6,5,6,7,4,3,7,8,3,2,
{16}6,7,4,3,7,8,3,2,7,6,1,2,6,5,2,3,
{16}7,6,1,2,6,5,2,3,6,7,4,3,7,8,3,2,
{16}6,7,4,3,7,8,3,2,7,6,5,4,6,5,4,3,
{16}7,6,5,4,6,5,4,3,1bz5[8:3]/2s6[8:3],,,,,,,,
{16},,,,4-1[8:1]/5-8[8:1],,,,45,,,,8s4[8:3]/7z3[8:3],,,,
{16},,,,,,,,4-8[8:1]/5-1[8:1],,,,45,,,,
{16}2z6[8:3]/3s7[8:3],,,,,,,,,,,,5-2[8:1]/8-3[8:1],,,,
{16}58,,,,1s5[8:3]/4z8[8:3],,,,,,,,,,,,
{16}1v3[8:1]/4v2[8:1],,,,1-6[8:1]/4-7[8:1],,,,1b/4b,,,,8,5,8,5,
{16}7,6,7,6,5,6,5,6,5,8,5,8,6,7,6,7,
{16}1,4,1,4,2,3,2,3,4,3,4,3,4,1,4,1,
{16}3,2,3,2,8,5,8,5,7,6,7,6,5,6,5,6,
{16}5,8,5,8,6,7,6,7,1,4,1,4,2,3,2,3,
{16}4,3,4,3,5b-1[8:1],,,,5b/7bw3[8:1],,,,7b,,,,
{24}1,2,3,4,5,6,8,7,6,5,4,3,1,8,7,6,5,4,1,8,7,6,5,4,
{24}8,1,2,3,4,5,1,8,7,6,5,4,6,7,8,1,2,3,6,7,8,1,2,3,
{24}1,2,3,1,2,3,1,2,3,1,2,3,1,2,3,1,2,3,1,2,3,1b,,,
{24}7,6,5,7,6,5,7,6,5,7,6,5,7,6,5,7,6,5,7,6,5,7b,,,
{24}3,4,5,4,3,4,5,4,3,4,5,4,3,4,5,4,3,4,5,4,3,,,,
{24}6,5,4,5,6,5,4,5,6,5,4,5,6,5,4,5,6,5,4,5,6,,,,
{12}8b,1h[12:1],2,1b,2h[12:1],3,2b,3h[12:1],4,3b,5h[12:1],7,6b-1[12:1]/2b-6[12:1],,,2b/6b,,,
{48}1b/8b,2b/7b,3b/6b,4bq1[1:2]/5bp8[1:2],,,,,,,,,,,,
{16},,,,,,,,,,,,,,,,
{16},,,,,,,,,,,,,,,,
{16},,,,,,,,,,,,,,,,
{16},,,,,,,,,,,,,,,8-5[256:221]*^2[128:29]/2?v3[85#124:19]/3?^5[53#128:9],
{16},,,,,,,,,,,,,,,,
{16},,,,,,,2h[4:1]/3V15[8:6],,,,,,,,,
{16},,,,,,,,,,,,,,,,
&inote_7=(165){1},
{16}1b,8,7,,1,8,7,,1,8,7,,1,8,7,,
{16}3,5,4,,6,4,5,,4,6,5,,7,5,6,,
{16}7,6,4,,7,6,3,,7,6,4,,7,6,3,,
{16}4,5,4,5,3,4,3,4,2,3,4,5,4,5,6,7,
{16}8-4[12:1],,,,,,3,3,2/8-4[12:1],,,,,,1,1,
{16}6/8-4[12:1],,,,,,7,7,2/8-4[12:1],,,,1b,,,,
{16}2,3,2,3,2,3,2,,7,6,7,6,7<2[4:1],6,7,,
{16}1h[2:1],,,,,,,,8,7,6,5,4,3,2,1,
{16}8/4,5,6,7,5,6,7,8,6,7,8,1,7,8,1,2,
{16}8b-4[8:8],,,,7b,,,,1b,,,,6b,,,,
{16}2b,,,,5b,,,,2b,3,4,5,3,4,3,4,
{16}2,3,4,5,3,4,3,4,2,3,4,5,3,4,3,4,
{16}2,3,4,5,3,4,3,4,2,3,4,5,3,4,3,4,
{16}2,3,4,5,3,4,3,4,2,3,4,5,3,4,3,4,
{16}2,3,4,5,3,4,3,4,3,2,5,6,2,1,6,7,
{16}3,2,5,6,2,1,6,7,2,3,8,7,3,4,7,6,
{16}2,3,8,7,3,4,7,6,3,2,5,6,2,1,6,7,
{16}3,2,5,6,2,1,6,7,2,3,4,5,3,4,5,6,
{16}2,3,4,5,3,4,5,6,7b,6,5,4,6,5,6,5,
{16}7,6,5,4,6,5,6,5,7,6,5,4,6,5,6,5,
{16}7,6,5,4,6,5,6,5,7,6,5,4,6,5,6,5,
{16}7,6,5,4,6,5,6,5,7,6,5,4,6,5,6,5,
{16}7,6,5,4,6,5,6,5,6,7,4,3,7,8,3,2,
{16}6,7,4,3,7,8,3,2,7,6,1,2,6,5,2,3,
{16}7,6,1,2,6,5,2,3,6,7,4,3,7,8,3,2,
{16}6,7,4,3,7,8,3,2,7,6,5,4,6,5,4,3,
{16}7,6,5,4,6,5,4,3,1bz5[8:3]/2s6[8:3],,,,,,,,
{16},,,,4-1[8:1]/5-8[8:1],,,,45,,,,8s4[8:3]/7z3[8:3],,,,
{16},,,,,,,,4-8[8:1]/5-1[8:1],,,,45,,,,
{16}2z6[8:3]/3s7[8:3],,,,,,,,,,,,5-2[8:1]/8-3[8:1],,,,
{16}58,,,,1s5[8:3]/4z8[8:3],,,,,,,,,,,,
{16}1v3[8:1]/4v2[8:1],,,,1-6[8:1]/4-7[8:1],,,,1b/4b,,,,8,5,8,5,
{16}7,6,7,6,5,6,5,6,5,8,5,8,6,7,6,7,
{16}1,4,1,4,2,3,2,3,4,3,4,3,4,1,4,1,
{16}3,2,3,2,8,5,8,5,7,6,7,6,5,6,5,6,
{16}5,8,5,8,6,7,6,7,1,4,1,4,2,3,2,3,
{16}4,3,4,3,5b-1[8:1],,,,5b/7bw3[8:1],,,,7b,,,,
{24}1,2,3,4,5,6,8,7,6,5,4,3,1,8,7,6,5,4,1,8,7,6,5,4,
{24}8,1,2,3,4,5,1,8,7,6,5,4,6,7,8,1,2,3,6,7,8,1,2,3,
{24}1,2,3,1,2,3,1,2,3,1,2,3,1,2,3,1,2,3,1,2,3,1b,,,
{24}7,6,5,7,6,5,7,6,5,7,6,5,7,6,5,7,6,5,7,6,5,7b,,,
{24}3,4,5,4,3,4,5,4,3,4,5,4,3,4,5,4,3,4,5,4,3,,,,
{24}6,5,4,5,6,5,4,5,6,5,4,5,6,5,4,5,6,5,4,5,6,,,,
{12}8b,1h[12:1],2,1b,2h[12:1],3,2b,3h[12:1],4,3b,5h[12:1],7,6b-1[12:1]/2b-6[12:1],,,2b/6b,,,
{48}1b/8b,2b/7b,3b/6b,4bq1[1:2]/5bp8[1:2],,,,,,,,,,,,
{16},,,,,,,,,,,,,,,,
{16},,,,,,,,,,,,,,,,
{16},,,,,,,,,,,,,,,,
{16},,,,,,,,,,,,,,,8-5[256:221]*^2[128:29]/2?v3[85#124:19]/3?^5[53#128:9],
{16},,,,,,,,,,,,,,,,
{16},,,,,,,2h[4:1]/3V15[8:6],,,,,,,,,
{16},,,,,,,,,,,,,,,,
