&title=全力前進!あややのゴシップ追跡大作戦
&artist=Dドライブ
&first=0
&des=Tたぜん
&des_5=Tたぜん
&lv_5=14
&inote_5=(175){4},,,
{1}1pp4[2:1],5pp8[2:1],{2}2>5[4:1],8-5[4:1],{1}4qq1[2:1],7pp4[2:1],2pp7[2:1],{2}5<8[4:1],3-8[4:1],{1}6qq1[2:1],
{8}35,3h[8:7]/5,,5,,8,,6,6,6h[4:3],,1,,4,,2,{16}3h[8:3],,,8,,,6,,5h[8:3],,,1,,,{8}3,4h[2:1],,,8,8,,,,46,4/6h[8:7],,4,,1,,3,3,3h[8:7],,8,,5,,7,7<4[4:1],,1,,2-5[4:1],,7,,{1}8>4[2:1]*<4[2:1],4b/5b<4[2:1],
{8}46,7,35,1,47,{16}6,5,{8}6,47,1,35,8,46,25,{16}3,4,{8}2,15,28,6,17,3,28,{16}6,5,{8}6,17,28,4,17,5,{16}3,4,3,4,{8}3,25,46,8,35,2,17,{16}3,4,{8}3,25,8,64,1,35,17,{16}6,4,{8}5,37,46,8,35,1,46,{16}3,5,{8}4,26,,17,46,28,3v8[8:1]/5v8[8:1],,35,,
3b/5b<8[8:1],,,,2,3,4,5,6-1[8:1],,4p8[8:1],,7<4[8:1],,1,2,3-8[8:1],,,7,6,5,4,3,2-5[8:1],,6<1[8:1],,4,,,,2b>5[8:1]/8b,,,,7,6,5,4,3-8[8:1],,,7,7qq3[4:1],,3,2,1-4[8:1]*-6[8:1],,,,5-2[8:1]*-8[8:1],,{1}5>5[4:3]*<5[4:3],{8},,
1b/7b<4[8:1],,78,,2,3,46,7,2>5[8:1]/8,,8-5[8:1],,3qq7[4:1],,7,6,5-8[8:1],,5,2,3,4,5,6,7-3[8:1],,4-1[8:1],,8,,,,4b>1[8:1]/6b,,45,,7,6,35,2,1/7qq3[4:1],,3,2,1-5[8:1],,1,,3-8[8:1]/7-4[8:1],,37,,2-5[8:1]/6-1[8:1],,{1}2p8[2:1]/6p4[2:1],{8},,
1h[8:1]/8h[8:1],,1h[8:1]/8h[8:1],,47,6,5,4/6-1[8:1],,26,,3,{16}4h[8:1]/6h[8:1],,,4h[8:1]/6h[8:1],,,{8}35,8h[8:1]/2h[8:1],,1h[8:1]/7h[8:1],,25,3,4,3-8[8:1]/5,,3/6-1[8:1],,26,,46,18,35,4h[8:1]/6h[8:1],,3h[8:1]/5h[8:1],,46,5,4,3/5<8[8:1],,25,,3,{16}4h[8:1]/6h[8:1],,,2h[8:1]/8h[8:1],,,17,,{8}3h[8:1]/5h[8:1],,4h[8:1]/6h[8:1],,35,4,5,4>1[8:1]/6,,4/7-2[8:1],,37,,17,45,28,
{2}1pp5[1:1],,5>1[2:1],1<5[2:1],5pp1[1:1],,{4},8b,8b,,{2}4/8qq4[1:1],2,4<8[2:1],8>4[2:1],4qq8[1:1],,{8}1,,1,,1v4[8:1]/7v4[8:1],,{4}1b/7b,
3/5h[4:3],2,4,1,4h[4:3]/6,7,5,8,2/8h[4:3],3,1,4,8<5[8:1],8b-3[8:1],8b,{8}6,7,8qq4[2:1],,2,,,3,2,1,1-5[8:1],,1/7-3[8:1],,4-1[8:1]/7,,{1}4/5<1[2:1]*>1[2:1],{4},18,4b/5b,3b/6b,2b/7b,
{8}7b<4[8:1]/1,7,3-1[8:1]-5[8:1],3,5,6,7,8,2>5[8:1],2,7-1[8:1]-5[8:1],7,4,3,2,1,25,{16}3,4,3,,2,,47,,6,5,{8}6,7,35,2,46,7,{16}2,3,4,5,8,7,6,5,{8}1-6[8:1],6-3[8:1],1,8,7-4[8:1],4-8[8:1],7,2,3,{16}6,5,{8}6,47,2-4[8:1]-8[8:1],8,7,6,5,{16}3,4,3,,6,5,6,,3,4,{8}3,25,2/5-8[8:1],,15,,{32}1,2,3,4,5,6,7,8,{8}1w5[8:1],,
1,,,{16}1,8,2h[8:1],,,3h[8:1]/5h[8:1],,,{8}46,2-6[8:1],8,2>5[8:1],8,2,7,28,46,25,{16}3,4,{8}2,15,47,{16}6,5,{8}7,48,4/8<5[8:1],,1/8>3[8:1],,78,,,{16}6,5,{8}7>1[8:1],7,2,3,4-8[8:1]-2[8:1],8,7,6,5-1[8:1],,2-6[8:1]/5,,8-5[8:1]/2,,4w8[8:1]/8,,4,,,,{16}2b/8b,,,4b/6b,,,{8}3b/5b,3b>8[8:1]/5b,,,,5-2[8:1]*-8[8:1],,,,
46,7,35,2,1-5[8:1],5-3[8:1],1,7,8h[8:1],2,4h[8:1],6,35,2,17,6,25,{16}3,4,2,,1,,47,,6,5,{8}7,8,35,2,46,7,{16}3,5,3,5,4,6,4,6,{8}4b-8[8:1]*>2[8:1],,,,7,{16}4,5,3,,25,,47,,6,5,{8}7,48,4/8w4[8:1],,,,8,7,26,3,{16}4h[8:1]/5h[8:1],,,1h[8:1]/7h[8:1],,,{8}35,{1}6<4[2:1]/4,
{2}2q5[1:1],8h[2:1],,46,7p4[1:1],2h[2:1],{4},1b,1b,,{2}6q1[1:1],4h[2:1],,28,3p8[1:1],5,{4}7,7,1v4[8:1]/7v4[8:1],1b/7b,
28,{8}2q5[1:1],8,{4}2,8,7,7,6,46,17,{8}7p4[1:1],1,{4}7,1,2,3h[8:1],3h[8:1],{8}6,7,{4}2b/8b-4[4:1],2,2,2,1b-5[4:1]/7b,7,7,7,{8}3,3,8,8,4,4,6,6,{4}2,18,27,45,,1b/8b,2b/7b,4b/5b,
{8}2b>5[8:1]/8,2,8-4[8:1],8,{16}1,2,{8}3,5,36,1/7-4[8:1],7,2,2,{16}8,7,6,5,4,3,2,1,8,,4,5,3,,2,,47,,6,5,{8}7,8,46,2,35,7,{16}4,3,2,1,5,6,7,8,{8}2>5[8:1],2,8,7,6,{16}2,4,{8}3,25,6<1[8:1],6,4-8[8:1]-2[8:1],4,7,6,5,5,3h[8:1],{16}6,5,6h[8:1],,3,4,2h[8:1],,6,5,7h[8:1],,2,8,{4}1-5[8:1],1,{32}8,7,6,5,4,3,2,1,{8}8w4[8:1],,
8,,,{16}6,5,7h[8:1],,,2h[8:1]/8h[8:1],,,{8}46,7<4[8:1],3,7-3[8:1],2,7,1,28,46,25,{16}3,4,2,,15,,47,,6,5,{8}7,48,4/8<5[8:1],,1/8>3[8:1],,78,,,{16}6,5,{8}7h[8:1],4,25,3,46,{16}7,5,{8}6<1[8:1],4,6-2[8:1],,4-8[8:1]/6,,4/7-3[8:1],,1>5[8:1]*<5[8:1]/7,,1,,,,{16}2b/8b,,,4b/5b,,,{8}1b/7b,2b-5[8:1]/6b-1[8:1],,,,3b-8[8:1]/7b-4[8:1],,,,{1}1bpp4[4:5]/5bpp8[4:5],,
{4}2h[8:1]/6h[8:1],2h[8:1]/6h[8:1],{16}17,,,45,,,{8}28,,4,4,35,{16}4h[8:1]/6h[8:1],,,3h[8:1]/5h[8:1],,,{8}24,1-5[8:1],,7-4[8:1],,{16}1,,,2,,,{8}3-8[8:1],,8,7,6,35,,28,,46,,35,,{16}1h[8:1]/7h[8:1],,,3h[8:1]/6h[8:1],,,{8}2/5pp1[8:3],,1,2,3,4-8[8:1],,4b,,
35,2,46,7,25,{16}3,4,{8}3,2,7,46,2,35,47,{16}6,5,{8}7,8,35,1,46,7,28,{16}3,4,{8}2,1,7,46,2,35,{16}6,4,6,4,{8}6,3b/5b,2b/6b,7,28,3,47,{16}6,5,{8}7,8,3b/5b,2,46,7,{16}2,4,3,5,4,6,5,7,{8}6b-1[8:1]*-2[8:1],,6b,,{16}3b/5b,,,4b/6b,,,{8}2b/8b,,4b/6b,2b/8b,3b/5b,1bv4[8:1]/7bv4[8:1],,1>8[1:2]/7,E
