&title=星座になれたら
&artist=結束バンド
&first=-0.15
&des=BLUE
&wholebpm=123
&clock_count=4
&lv_5=13
&inote_5=(123)
{1},
{16},,B5,B6,E7,,,,1x/8x,,,,3,4,2,5,1x/6x,,,3x/8x,,,
5xh[4:1]/6xh[16:7],,,,,,,C,,,
{12}1-5[6:1],1,,E7/A7,,,
{16}4xh[8:1]/8xh[8:1],,,,4,8,3,7,2x/6x,,,3x/5x,,,
2xh[4:1]/6xh[16:7],,,,,,1pp4[16:6],1x,,5,5xh[8:1],,,,6,,7,,
8xb/2xb,,3,,5,4,6,5,7h[8:1],,8x,,7h[8:1],,6x,,
5/7,,4,,3/6x,,5,,2x/4x,B2/B4,,,1xh[8:1]/5xh[8:1],,,,
3x/7x,,6,,2,5,3,4,2,1x,,1,2xh[8:1],,8,,3h[8:1]/7h[8:1],,,,
3x/7x,,4/6,,B3,,B7,,2,8,1x,,7q5[8:3],,,,,,
5q3[8:3],,4x,,,,3q1[8:3],,,,,,2xh[16:6],,,,,,8,,2/8x,,1,7,1x,,
6h[8:1],,5,,4/6x,,,3h[8:1],,4,4,,2/5x,,3,,4/6xqq1[16:7],,,,,,,,,,,,
B4,,E3,,8h[8:1],,2,,3x/7,,3,5,,5h[16:3],3x,,2,,1,,
7x/8>6[16:6],,,,B7,,,,
8xh[16:1],,,,7p5[16:5]/8x,,,,2,,2,,3x,,
4h[16:4],5x,,,5,,3x/6x,,7,,2/8,,3,,4/5x,,
6,3,7,4,8,,5/6x,,4h[4:1],,3-7[15:2],,3,,
4x-8V62[16:6],,,,6xh[8:1],,,,5h[8:1],,,,
3x/4,,,3,4xh[16:3],3x,,E3,,5h[16:1],B1,,6,,7x,,
2h[16:1]/8h[8:1],,,,3/7x,,6,,2/5,,
4,3x,,5,6xh[8:1],,7xqq4[16:7],,,,1-4[16:3],,,,,,,,
3x,,2,,8,8x,,1,7x,2,6,,5x/2,,5,3xh[16:3],,,4,,5xv3[16:3]/6v4[16:3],,,,,,,,
2x,1,2,,1/8xh[8:1],,1,1,7h[16:1],,5,,4x/6,,3,,1/2,,8x,8,B2,,7,,
6/8x,,1,,2x/7,,8,,2,1,3h[8:1],,2xp5[4:1],,2,,4xh[16:3],,,,
4V68[4:1],,3,,2x,,1,1,,,1x,,
{32}8h[8:1],,,,A2,E3,,,7h[8:1],,,,A6,E6,,,8h[8:1],,,,A4,B4,,,
{16}7x,,6,,4,5,3x,,4,6,2x,,7,,1/7,,B2,B6,B3,B5,
4x<8[16:5],,3xh[16:1],,2h[16:1],,1xh[16:1],,
B2,B3,B4,B5,8xh[16:1],,7h[16:1],,1x>5[16:5],,
6xh[16:1],,7h[16:1],,8xh[16:1],,1x,8,7,6,4x,4,5x,5,
3-1[15:2],,4,,3/5x,,6,,7-3[15:2],8,,8x,7,,1x,,
2xh[8:1],,4h[8:1],,6,,7x,,8-4[15:2],,1,,2h[16:1]/8,,2x,,
3^8[15:2],,4,,3x/5,,6,,7,8,7,1,7,2,7,3,
6x-3[15:2],,4,,3/6x,,2,,1,8,2,,2x/8,,7,7,4,,3xh[8:1]/5h[8:1],,,,
2-6[15:2]/6x-1[15:2],,,,2<3[16:9]b/6,,,,Cf,,,,
2,,2,,1,,1xw5[15:2]b,,,,1x,,,,
7b^4[15:2],4x,,3,3x,,2,,1-5[15:2],1,8,,
8x^5[16:3],,,,4V68[16:3],,,,B3/E3/A3,,,,
2x,8,1,,2x/8,,7x,,2-6[15:2],,6x,6,2x,,7,,
8xp4[15:2],8,4x,,3x-1[15:2],,,,3x/4-8[15:2],,,,
1x-5[15:2]/4,,,,1/8x-6[15:2],,,,5x/8,,4h[16:1],,
3/5x,,2,,1-3[15:2]/6,,7,1,8xv3[15:2],,,,2x,,2,,
1^6[15:2],,2,,3x-1[15:2],,4,5x,3xv8[15:2],,,,1x,,1,,
2/8x,,2x/8,,B3/B7,,5x-2[15:2]b*-8[15:2]b,,,,5,,,,
1pp5[16:6],,,,8,,8,,7x,,6xh[16:1],,5,,3x/4,,2,,
1bq5[15:2],5,,6,1x,,7,,8x-3[15:2],8,5,,4^1[16:3],,,,
4xq5[4:1],,,,D1/A1/E2,,,,3x,3,5x,,2/6,,3,,
7-3[15:2],,3,3,7x,,2,,1x^6[15:2],1,4,,5-3[15:2],,,,
5-7[15:2]/6x,,,,4x/5-2[15:2],,,,5/8x-4[15:2],,,,1x/8,,2h[16:1],,
3/5x,,6,,3/7q1[16:6],,1x,,2^5[16:2]b,,,,2x,,,,
1x-5[15:2],,8,,7^4[15:2]/1,,8x,,3x-6[15:2],2,1,,1xh[8:1],,,,
2/8x,,7,,4/6,,3,5,2,,1-5[15:2]/8-4[15:2],,4x/5x,,1b/8b,,,,
3x/6x,,4,5,3,6,2x,8,3,7,4x,4,6x,6,
5b,6,4,5,3x,7,2,8,1,,8,,2/7,,3,4,3,,2/5<3[16:6],,6,,
7xh[4:1]/5,,,,,,7v6[15:2],,,,2h[8:1],,,,3,5,,
6,4,7,5,8,4,7,3,6,,B2,B5,B3,B6,B4,B7,B5,B8,,C,,3/5,,2/6,,
1^4[16:3]/7,,,7xh[8:1],,,8^3[16:3],,,6xh[8:1],,,
7^2[16:3],,,5xh[8:1],,,6h[16:3],,,4z8[16:3]b,,,
3xh[8:1],,,,3,,2b/8b,,1^4q6[16:7],,7,,1x,,,,6x,,7x,,8x,,
1<5[16:6]/5,,,,4,,3,,2,,1w5[6:1],,,,1xb,,,,
3x-1[15:2],,4,,3/5,,6,6,8-4[15:2],7,8,,1h[8:1],,,,
2x-4[15:2],,1,,2/8,,7,7,5^8[15:2],6,5,,4h[8:1],,,,
3>6[16:5],,,,5,,4h[4:1],,,,,,B4/B6,,,,
3/5,,6,,4/7,,2,1,2,1,2,,3/8x,7,6x,5,
4/3x-6[15:2],,1,,2/3,,1,1,7-2[15:2],8,7,,6h[8:1],,,,
4-7[15:2],,2,,3/4,,2,2,8^3[15:2],1,8,,7h[8:1],,,,
4h[8:1]/6h[4:1],,,,4,,3s7[18:5]/5z1[18:5],,,,,,,,,,
2x/8x,,7,,3/6,,4,5,4,5,4,,2/7,,8,8,1b,,B8,,C,,2xb/6xb,,,,
B3,,B5,,1x/B7,,,,7x/B2,,,,3x/B8,,2h[24:5],,
{24}7x,6,5,4x/Cf,,,,,,
{4},,
{8}A4,,A4,,A4,,A4,,A4/A6,,A4/A6,,A4/A6,,A4/A6,,
A4/A5,,A4/A5,,A4/A5,,A4/A5,,
A2/B2,,A1/B1,,A8/B8,,A7/B7,,
2h[1:1],,6,,6,,6,,
8h[1:1],,3,,3-1[15:2],,3x,,
1,1h[8:1]/8h[8:1],,2b-4[15:2]/7b-5[15:2],,2/7,,
4xh[8:1]/5xh[8:1],,4-1[15:2]/5-8[15:2],4/5,4x/5x,,
{16}1x,8,1x,8,1,8,
2xbq6[15:2],1x,,8,2,,7,,8x-4[15:2],8,4,,
3-1[15:2],,,,3/4-8[15:2],,,,1/4x,,,,
2,2,1,,2/8,,7,,3/6-1[15:2],,4,4,6,,3x,,2,,3b/7b,,
4,6,4,6,3bh[8:1]/Cf,,,,7bh[8:1]/Cf,,,,1bh[8:1]/Cf,,,,
5bh[8:1]/Cf,,,,4xb>1[15:2]b/6xb,,7,,
4/8qq5[16:6],,8,,1x,2x,3x,,{24}E4,E3,E2,,,,
{16}1-5[15:2]/6,,7,,1<6[15:2],,8x,,1x>4[15:2]/4,,,,1/5,,,,
5/6,,5h[8:1]/6h[8:1],,,,4/7,,3/6,,4-8[15:2]/5-1[15:2],,1/8,,4b/5b,,,,
2,7,3,6,4h[8:1],,E6,E4,E7,E3,8x-4[15:2],,,,
1b/8b,,,,3,4,2,5,1>4[6:1]/6,,7,,1/8,,7,,
5/6,,4,,5/6,,7,,1/8,C,,,4h[8:1]/5h[8:1],,,,
2/7,,6,,3,5,2,4,1-5[6:1],8,,8,1,,7,,6,,5/6,,7,,3/4,,
B2,,B6,,4,5,3,,2/6-4[15:2],,6,,1,,2,,
3-8[15:2],5,5,,3/4,,5,,6,,4/7,,3,,2/5,,
8,,1/7,,2/6,,3/5,
