&title=(修复版)きらめき*Chocolaterie
&artist=Covered by 香鳴ハノン
&first=0.013
&des=Jan03
&clock_count=4
&lv_5=13
&inote_5=(138)
{1},{2},
{4}2h[4:1],,4h[4:1],,5h[4:1],,7h[4:1],,3h[4:1]/4h[4:1],,6h[4:1]/5h[4:1],,
{16}6/4,,,5/3,,,4/3>6[8:1],,{2},
{8}4,2/5,6,7/4,5,6,7,8,4,2/5,6,7/4,5,4,3,2,
{8}1>4[8:1],,,,,5<8[8:1],1,2,3h[4:1],,6<1[8:1],,,,,,
{8}4,2/5,6,7/4,5,6,7,8,4,2/5,6,7/4,5,4,3,2,6<1[8:1]/5h[4:1],,,,
{16}2,3,4,5,6,7,8,1,
{8}2,2/8,7,6/1,8b/7b,,1b/2b,,1pp4[4:2]/8qq5[4:2],,,,,,,,
{8}4/3,4/3,4/5,5/6,3b/6b,,,,
{16}3h[4:1],,4,,5,,4,5,,5,6,,6,,7b/4b,,5h[4:1],,4,,3,,3,4,,4,5,,5,,7b/4b,,
{8}6p4[8:1],,,,3q5[8:1],,,,5<8[8:1],
{16},8>3[8:1],,,5h[4:1],,,,,,8,,1,,
{8}1qq7[8:1]/2,{16}4,,
{8},,4pp6[8:1]/3,{16}1,,{8},,
{8}1>4[4:1],,4<8[4:1],,8>3[8:1],,,,
{16}5h[8:1]/3h[8:1],,,5/3,,,5/3,,
{16}4h[8:1]/6h[8:1],,,4/6,,,4/6,,
{16}1/2,,,3/8,,,7/8,,6/1,,1,2,3,4b,
{8},1>5[8:1],,5,6,8<4[8:1],,4,3,
{8}1-5[8:1],,5,6,8-4[8:1],,4,3,
{8}5<1[8:1],,4,2,4>8[8:1],,5,7,
{4}8w4[4:1],8b,
{16},,4,5,4,5,,,
{4}5V37[8:1],7V15[8:1],5p1[8:1]*q1[8:1],,
{16}1,,2-6[8:1],,1-5[8:1],,2b,,1b,,,,,,,,
{4}7-3[8:1],8-4[8:1],1-5[8:1],2-6[8:1],,
{8},3qq5[4:3],6pp4[8:5],3b,6b,,,,,,,,,,
{16}1h[16:3],,,8h[16:3],,,1b,,
{32}8,1,2,3,4,5,6,7,8b/1b,,,,
{16}2<7[8:1],,3,,3,3,,,5-1[8:1],,4,,3,3,,,3h[8:1],,1,,1,1,,,
{8}1-7[8:1],2-6[8:1],1-5[8:1],2-4[8:1],,,,,
{16}5,4,3,,3,,1,,1,,7/1,,7/5,,6/4>5[4:1],,5/3,,4b/2b,,,,,,
{16}1<6[8:1],,3,,3,3,,,5-1[8:1],,4,,3,3,,,3h[8:1],,1,,1,1,,,
{8}1-7[8:1],2-6[8:1],1-5[8:1],2-4[8:1],,,,,
{16}5,4,3,,3,,1,,1,,1b/7b,,,5b/7b,,,5b/3b>6[8:3],,5,,4,,3,,2,,
{8}1,,,1V35[4:1],
{16}8,,,7,,,6b,,
{8}6/5,1/8,3/4,4/5,3b/6b,,,
{8}5<1[4:1],{16}4,,,3,,,2,,{4}1,8<1[4:3]/1,8,
{8},,,,,,7h[4:1],,6h[4:1],,5<8[8:1],,
{8},,2h[4:1],,3h[4:1],,4>1[8:1],,,,
{16}8,,,1,,,8,,2/7,,,,2b/7b,,,,
{16}1,2,3,4,1,8,7,6,5,4,3,2,1,8,7b,,
{16}5,4,6,3,5,4,6,3,5,4,6,3,8,1,2b/7b,,
{16}8h[8:1]/2h[8:1],,,8/2,,,8/2,,
{16}1h[8:1]/7h[8:1],,,1/7,,,1/7,,
{16}1/2,,,3/8,,,7/8,,6/1,,1,2,3b,,,,
{4}1-4[1:1]/8h[4:1],,7h[4:1],,6h[4:1],,5h[4:1],,4,
{8},5,3,6,2,7h[8:5],3,2,1,8h[8:1],,,
{4}4h[4:5]/1,1-6[8:1],1,6-3[8:1],6,3>8[8:1],,
{4}8-2[8:1]*-6[8:1],8w4[8:1],,,
{4}4pp6[32:3]*qq2[32:3],,
{8}1/5,2/6,3/7,4/8,1b/5b,,,
{16}2<7[8:1],,3,,3,3,,,5-1[8:1],,4,,3,3,,,3h[8:1],,1,,1,1,,,
{8}1-5[8:1]/2,8,1/2-6[8:1],3,1-5[32:3]/2,8,,,
{16}5,4,3,,3,,1,,1,,7/1,,7/5,,6/4>5[4:1],,5/3,,4b/2b,,,,,,
{16}1<6[8:1],,3,,3,3,,,5-1[8:1],,4,,3,3,,,3h[8:1],,1,,1,1,,,
{8}1<6[8:1]/2,8,1/2>5[8:1],3,1<6[32:3]/2,8,,,
{16}5,4,3,,3,,1,,1,,1b/7b,,,5b/7b,,,5b/3b>6[8:3],,5,,4,,3,,2,,
{8}1,,,1V35[4:1],
{16}8,,,7,,,6b,,
{8}6/5,1/8,3/4,4/5,3b/6b,,,
{8}5<1[4:1],{16}4,,,3,,,2,,{4}1,8<1[4:3]/1,8,,,,
{8}8,6/1,2,3/8,1,2,3,4,8,6/1,2,3/8,1,8,7,6,
{8}5<8[8:1],,,,,1,2/8,3/7,4/6,,5w1[8:1],,5,,,,
{8}4,2/5,6,7/4,5,6,7,8,4,2/5,6,7/4,5,4,3,2,6<1[8:1]/5h[4:1],,,,
{16}2,3,4,5,6,7,8,1,
{8}2,2/8,7,6/1,8b/7b,,1b/2b,,1pp4[4:2]/8qq5[4:2],,,,,,,,
{8}3/4,5/6,4/5,3/6,2b/7b,E
