&title=吹雪
&artist=西沢幸奏/TVアニメ「艦隊これくしょん -艦これ-」EDテーマ
&first=1.6999999
&des_5=Ragna
&lv_5=13+
&des=Ragna
&wholebpm=180
&demo_seek=59.5
&demo_len=23.2
&inote_5=(180){1}
3>7[4:3],6<2[4:3],3>6[4:3],5p4[4:3],
2^7[4:3],6<3[4:3],4>5[4:3],8q1[4:3],
4bw8[16:7],{16}2,7,2,7,3,6,3,6,4,5,4,5,2,7,2,7,
{8}1V35[16:3],,,{16}6,7,{8}8V64[16:3],,,{16}3,2,
{8}1V35[16:3],,,{16}6,7,{8}8-4[8:1],4,8,,
{8}1>5[16:3],,,{16}6,7,{8}8-4[8:1],,,{16}3,2,
{8}1h[4:1],5,8h[4:1],4,2h[4:1],4,7h[4:1],,
5V38[32:7],,,{16}7,6,{8}5-1[8:1],,,{16}2,3,
{8}4h[4:1],,8h[4:1],,2h[4:1],,6h[4:1],,
8>5[32:7],,,{16}6,7,{8}8-4[8:1],,,,
3h[4:1],,6h[4:1],,1h[4:1],,8,,
27,,4-1[8:1],,8-5[8:1],,2,3,
4V25[32:7],,6,7,8V24[32:5]*V64[32:5],,8,,
,,5h[4:1],,6h[4:1],,7h[4:1],,
8h[4:1],,1h[4:1],,2h[4:1],,3h[4:1],,
4q5[16:5],,,8,8q1[16:7]*<1[16:7],,,,
,,,,8^3[8:1]*q4[8:1],,,,
5q8[8:13],,4-2[8:1],,4-1[8:1],,4,,
,,4-2[8:1],,4-1[8:1],,4,,
27,,5^8[8:1],,1^4[8:1],,7,6,
5V73[32:7],,3,2,1>5[32:5]*<5[32:5],,1,,
,,4h[4:1],,3h[4:1],,2h[4:1],,
1h[4:1],,8h[4:1],,7h[4:1],,6h[4:1],,
5pp4[16:5],,,1,1pp8[16:7]*>8[16:7],,,,
,,,,1-6[8:1]*-5[8:1],,,,
4qq1[8:13],,5^7[8:1],,5v8[8:1],,5,,
,,5^7[8:1],,5v8[8:1],,5,,
2>8[8:9]/7<1[8:9],,,,,,,,
,,,,,,,{16}27,36,
{8}4z8[16:7]/5s1[16:7],,,,,,,,
1^4[8:1]/8^5[8:1],,18,,,45,36,,
2-5[8:1]/7,,21,,7-4[8:1]/2,,78,,
1-5[8:1]/5,,16,,8-4[8:1]/4,,83,,
15,1,1,72,7,7,31,3,
3,74,7,7,1-6[8:1]/8-3[8:1],,18,,
45,3,45,6,45,2,45,7,
1b/8b,2b/7b,3b/6b,,4q5[8:3],,,5<4[8:3],
6,,,,6p4[8:3],,,4>5[8:3],
3,,,,3q5[8:3],,,5<4[2:1],
6,,,4q5[8:3],5,,,7,
8bV24[16:3]*V64[16:3],,,,,,{12}53,,2,
4,3,5,4,6,5,7,4,6,3,5,2,
4^7[8:1],,,1,,1,8,,,27,,,
1,6,3,8,,8,4,,4,6,,6,{8}
1-4[8:1]*-6[8:1],,,,5pp4[8:3],,,4>5[8:3],
3,,,,3qq5[8:3],,,5<4[8:3],
6,,,,6pp4[8:3],,,4>5[2:1],
3,,,5pp4[8:3],4,,,2,
1b>5[16:3]*<5[16:3],,,,,,64,,{12}
7,5,6,4,5,3,4-8[8:1],,,,,,
2,4,3,5,4,6,5-1[8:1],,,,,8,
2h[4:1],,,7,,7,5,,5,3,,3,{8}
1V35[4:1],,5V71[4:1],,1,,5,,
25,3,74,6,24,3,75,6,
14,3,85,6,45,36,27,18,{16}
2,6,2,6,3,4,3,4,1,6,1,6,3,7,3,7,
1,2,3,4,8,7,6,5,{32}2,3,4,5,6,7,8,1,2,3,4,5,6,7,8,1,
{48}2h/8h,3h/7h,4h/6h,5h,,,{8},,,E
