&title=超跑情人夢
&artist=卜學亮
&first=4.64
&des=MiraT
&lv_5=13
&lv_6=13+
&inote_5=(158.5)
{4}7h[4:7]/1,,2,,1,2,3-8[8:1],3,
{8}6,1,8,3,5,2,7,4,6,2,7,3,8-4[8:1],,,,
{8}3,3,4,2,6,6,5,7,1,8,2,7,1-5[8:1],,,,
{8}7,8,6,1,5,2,4,3,4<8[4:1],,8>4[4:1],,4,,,,
{8}2,1,3,8,4,7,5,6,5<1[4:1],,1>5[4:1],,5,,,,
{16}6,5,7,4,6,5,6,,3,4,2,5,3,4,3,,6,4,5,3,,8,1,,3,5,4,6,,1,8,,
{16}6,5,7,4,6,5,6,,3,4,2,5,3,4,3,,6,4,5,3,,8,1,,3,5,4,6,,1,8,,
{16}7,8,6,1,7,8,7,,2,1,3,8,2,1,2,,7,1,8,2,,5,4,,2,8,1,7,,4,5,,
{16}7,8,6,1,7,8,7,,2,1,3,8,2,1,2,,1xs5[4:1],,,6x,,,7x,,,,8,,3b/8b,,,,
{8}18,7,46,5,34,2,38,1,27,6,45,3,2-7[8:1]/6-3[8:1],,,,
{8}13,2,17,6,45,3,26,7,4-1[8:1]/8-5[8:1],,48,,12,78,,18,
{8}27,1,68,7,56,4,25,1,78,6,5v8[8:1]/3v8[8:1],,,,,,
{8}18,2,18,7,B2/B3,B6/B7,B8/B1,B4/B5,18,27,1-4[8:1]/8-5[8:1],,{16}1b/8b,E7/B6/Cf/B3/E3,,,,,,,
{8}1-5[8:1],,7-3[8:1],7,2-6[8:1],2,8-4[8:1],8,2-5[8:1],2-7[8:1],2,2,,2,13,,
{8}7-4[8:1],8-3[8:1],7,8,,2,1b/8b,7,2-5[8:1],1-6[8:1],2,1,,7,8b/1b,2,
{8}6-3[8:1],,2-7[8:1],2,5-8[8:1],5,1-4[8:1],1,5-8[8:1],5-2[8:1],5,5,,5,46,,
{4}8bw4[8:1]/1,,1bw5[8:1]/8,,2-5[8:1],7-4[8:1]/2,3-8[8:1]/7,6<4[4:1]/3,62,,
{8}2,1,8,7,6pp3[4:1],,2,2,,3x,4,3,2p5[8:1]/5<8[8:1],,,,7q4[8:1]/4>1[8:1],,,,
{8}2-5[8:1],7p4[4:1],2,7,,,,,1>4[8:1]/5<8[8:1],,,,E6,E8,E2,E4,B7/B8,B1/B2,B6/B5,4h[8:3]],,,,,
{8}7,8,7,1h[4:1]/6h[4:1],,,78,,18,2,36,7,{16}1,8,1,8,{32}1,2,3,4,5,6,7,8,
{8}1bw5[8:1],,,,7,8,1,2,3qq6[4:1],,7,7,,6x,5,6,7-4[8:1]/4-1[8:1],,,,2-5[8:1]/5-8[8:1],,,,
{8}1-4[8:1],8p5[4:1],1,8,,,,,3-6[8:1]/7-2[8:1],,,,
{8}E8/B8,E4/B4,E6/B5,E2/B1,E7,C,E3,5h[8:3],,,,,
{8}2>5[8:1],5-2[8:1],2V48[8:1],,,,26,37,4-1[4:1]/8p3[4:1],,,,,,,,
{8}1-5[8:1],28,1,,8-4[8:1],17,8,,E8,E2,E7,E3,E6,E4,C,,
{8}1/3x<6[8:1],2,13,,8/6x>3[8:1],7,86,,18,27,{12}5x,4x,5x,{8}3x/6x,1,18,,
{8}2q6[8:1]/5,6,7,8,7p3[8:1]/4,3,2,1,6h[8:1],3h[8:1],7h[8:1],2h[8:1],8h[4:1],,,,
{8}34,2,56,7,1b,1b,1b,,7-4[8:1],2-5[8:1],7,2,6h[4:1],,,,
{8}8-5[8:1]/4,,8-3[8:1]/4,,8-5[8:1]/4,4,84,,2h[8:1],1h[8:1],3h[8:1],8h[8:1],4-8[8:1],,,,
{8}1-4[8:1]/5,,1-6[8:1]/5,,1-4[8:1]/5,5,15,,7h[8:1],8h[8:1],6h[8:1],1h[8:1],5-1[8:1],,,,
{8}7-2[8:1]/3,,7-4[8:1]/3,,7-2[8:1]/3,3,73,,E1,E8/E2,E7/E3,E6/E4,Ch[4:1],,,,
{8}2-7[8:1]/6,,2-5[8:1]/6,,2-7[8:1]/6,6O,26,,E5,E4/E6,E3/E7,E2/E8,Ch[4:1],,,,
{8}34,2,17,6,45,3,28,1,26,3,47,6,4-8[8:1]/5-1[8:1],,,,
{8}17,8,12,3,25,6,37,8,2-5[8:1]/7-4[8:1],,27,,12,87,,18,
{8}26,3,45,6,37,2,16,7,48,48,37,26,1pp3[8:1]/5pp7[8:1],,,,
{8}13,2,68,7,24,3,57,6,15,15,26,37,{32}4h[4:1]/8h[4:1],,,,,,,,,3x/7x,2x/6x,1x/5x,,,,,
{8}1-5[8:1],,8-6[8:1],8,1-3[8:1],1,8-4[8:1],8,2-5[8:1],2-7[8:1],2,2,,2,13,,
{8}7-4[8:1],8-3[8:1],7,8,,2,1b/8b,7,2-5[8:1],1-6[8:1],2,1,,7,8b/1b,2,
{8}6-1[8:1],,2-5[8:1],2,6-3[8:1],6,2-7[8:1],2,5-8[8:1],5-2[8:1],5,5,,5,46,,
{4}8bw4[8:1]/1,,1bw5[8:1]/8,,2-5[8:1],7-4[8:1]/2,3-8[8:1]/7,6<4[4:1]/3,62,,
{8}2,1,8,7,6V84[4:1],,2,2,,3,4,3,2-5[8:1]/5-1[8:1],,,,7-4[8:1]/4-8[8:1],,,,
{8}2-5[8:1],7p4[4:1],2,7,,,,,1-4[8:1]/5-8[8:1],,,,E8,E6,E4,E2,B6/B5,B4/B3,B7/B8,1h[8:3]],,,,,
{8}7,8,7,1h[4:1]/6h[4:1],,,78,,18,2,36,7,{16}1,8,1,8,{32}1,2,3,4,5,6,7,8,
{8}1bw5[8:1],,,,7,8,1,2,3V15[4:1],,7,7,,6,5,6,7<4[8:1]/4>1[8:1],,,,2>5[8:1]/5<8[8:1],,,,
{8}1-4[8:1],8p5[4:1],1,8,,,,,3<6[8:1]/7>2[8:1],,,,
{8}E6/B5,E2/B1,E8/B8,E4/B4,E7,C,E3,8h[8:3],,,,,
{8}2>5[8:1],5-2[8:1],2V48[8:1],,,,26,37,4-1[4:1]/8p3[4:1],,,,,,,,
{8}6h[4:1]/1>4[8:1],,1,,6,7,8,1>5[4:1],,5<1[4:1],,1-5[4:1],,,,,
{16}2,5,4,5,2,5,4,5,3,5,4,5,3,5,4,5,{8}3,3pp8[8:3],7,7h[8:3],,,,,
{16}1,8,2,7,1,8,2,7,1,8,3,6,1,8,3,6,1,8,1,8,2,7,2,7,3,6,3,6,4,5,4,5,2,7,4,5,1,8,3,6,1,8,2,7,3,6,4,5,{4}4bp1[4:2],,,,,,,,
E
&inote_6=(158.5)
{8}1h[4:1]/E6,,,,7h[4:1]/B3/E4,,,,
{8}1/E6,,7/B3/E4,,2/E7/B6/E6,,4b/8b,,
{4}7xp2[4:1],3,3,3,
{4}1xp5[4:1],3,3,3,
{4}2xp5[4:1],6,6,6,
{4}4xp8[4:1],6,6,6,
{4}7-3[8:1],7x/4x,2,1x/2x,
{4}2-5[8:1],2x/6x,8,1x/8x,
{8}3,3,1,1,8,8,6,6,
{4}5x-2[8:1]/4x-7[8:1],4x-1[8:1]/5x-8[8:1],4x/5x,Cf,
{16}4b,5,4,7,,2,1,3,5,4,5,2,,7,8,6,
{16}3,3,4,2,,8,1,,6,6,5,7,,1,8,,
{16}3,4,2,5,,1,8,1,6,5,7,4,,8,1,8,
{16}2,2,4,3,,3,5,,7,7,5,6,,6,4,,
{16}1b,8,1,6,,3,4,2,8,1,8,3,,6,5,7,
{16}2,2,1,3,,5,4,,7,7,8,6,,4,5,,
{16}2,1,3,8,,4,5,4,7,8,6,1,,5,4,5,
{16}4xh[8:5],,,B6/E7,,,E2/B2,,,,8,,6b/2b,,,,
{8}1-5[8:1],7,1,8,3,3h[4:1],2,1,
{8}8p4[8:1],8,3-1-7-5[8:3],3,6h[4:1],,,,
{8}A2/E2,A8/E8,3,3,A7/E8,A1/E2,6,6,
{8}4xw8[8:1],,4x,,6x/2x,4x/8x-4[8:1],,8,
{8}3,3h[4:1],2,1,8,8h[4:1],7,6,
{8}5>2[8:1],5,5pp1[8:3],,5,,,,
{8}28,3,17,6,18,2,18,7,
{8}3b-8[8:1]/6b-1[8:1],3b/6b,3b<2b[8:3]/6b,,3xb/Cf,,,,
{8}7-4[8:1],,3,3,1-5[8:1]/2,81,7,7,
{8}6-2[8:1],2-7[8:1],6,4h[4:1],,8x,2x/6x,,
{8}8p4[8:1],2-5b[8:1],8,2,,6,6x,17,
{8}8-4b[8:1],2>5[8:1],8,2,,6,6x,17,
{8}3-8[8:1],,7,7,5-1[8:1]/6,45,3,3,
{8}2-6[8:1],6-3[8:1],2,8h[4:1],,4,4w8[8:1],,
{8}4b,,5w1[8:1],,5b,,7-4[8:1],,
{8}7b/3-8[8:1],,3b/6-1[8:1],,6b/2-5[8:1],,2b/8<1[8:3],,
{8}8b/Cf,,,,4-8[8:1],4,8-3[8:1],7,
{8}6v1[8:1],,6,2-5[8:1],,2,6,7,
{8}8x<5[8:1],,2,1,8x>3[8:1],,6,7,
{8}8,1pp4[8:3]/8qq5[8:3],27,18,,,,,
{8}7-4[8:1]/3-8[8:1],,,,1,1h[4:1],2,3,
{8}4<7[8:1],3>8[8:1],4,3,,C,A7/E7/B7/A2/B2/E3,,
{8}4,31,28,1/7h[4:1],,2-5[8:1],8-4b[8:1],2-6[8:1],
{8}8-3b[8:1],2>5[8:1],8,2x,,6,4/5-7-1-3-5[8:3],,
{8}5b/Cf,,,,1-5[8:1],1,5>2[8:1],6,
{8}7v4[8:1],,7,3-8[8:1],,3,7,6,
{8}5x-7-1[8:1],,1,3,5x-3-1[8:1],,1,7,
{8}5,4qq1[8:3]/5pp8[8:3],36,45,,,,,
{8}6<1[8:1]/2v5[8:1],,,,4,4h[4:1],3,2,
{8}1v6[8:1],2-5[8:1],1,2,,C,A6/A5/A4/A3/E6/E4,,
{8}7v4[8:1],4<2[4:1],7,2,3h[4:1],,8,8,
{8}8p3b[8:4]/4-1b[8:4],,,,,,,,
{8}1q5[8:1],2,16,,8p4[8:1],7,83,,
{8}2q7p2[4:2],,7,8,1,,7,,
{8}8-4[8:1]/7-4[8:1],6,87,,1-5[8:1]/2-5[8:1],3,12,,
{8}6<1p5[4:2],,1,2,3,,B2/B3,,
{8}6-1[8:1],6,2,3,4-8[8:1],4,8,7,
{8}6-3[8:1],6,2<3[8:3],2,8h[4:1],,,,
{8}7,6h[8:3],3,2,1b,1b,1b,,
{8}7-5[8:1],8-4[8:1],7qq3[8:3],8,7,,,,
{8}1>4[8:1],,5/1<6[8:1],,5/1>4[8:1],5,51,,
{8}6-8[8:1],5-1[8:1],6,5,7x-3[8:1],,,,
{8}2>5[8:1],,6/2<7[8:1],,6/2>5[8:1],6,62,,
{8}7-1[8:1],6-2[8:1],7,6,8x-4[8:1],,,,
{8}7<4[8:1],,3/7>2[8:1],,3/7<4[8:1],3,37,,
{8}2-8[8:1],3-7[8:1],2,3,1x-5[8:1],,,,
{8}8<5[8:1],,4/8>3[8:1],,4/8<5[8:1],4,48,,
{8}3-1[8:1],4-8[8:1],3,4,2x-6[8:1],,,,
{8}8-4[8:1],2,8,1,6,6h[4:1],7,8,
{8}1q5[8:1],1,6<4[8:3],6,3h[4:1],,,,
{8}A6/B6,A2/B2,8,8,A3/B3,A7/B7,1,1,
{8}5xw1[8:1],,5x,,3x/7x,5x/1x-5[8:1],,1,
{8}6,6h[4:1],7,8,1,1h[4:1],2,3,
{8}4-7[8:1],2-6[8:1],4-8[8:1],2,4,,26,,
{8}5,5h[4:1],4,3,2,2h[4:1],1,8,
{8}7,73,26,15,8h[4:1]/4h[4:1],,{72}D1f/D5,A1/A5,D2/D6,A2/A6,D3/D7,A3/A7,,,,,,,,,,,,,
{8}2x-5[8:1],,6,6,8-4[8:1]/7,18,2,2,
{8}3-7[8:1],7-2[8:1],3,5h[4:1],,1,73,,
{8}1q5[8:1],7-4b[8:1],1,7,,3,3x,82,
{8}1-5b[8:1],7<4[8:1],1,7,,3,3x,82,
{8}6-1[8:1],,2,2,4-8[8:1]/3,54,6,6,
{8}7-3[8:1],3-6[8:1],7,1h[4:1],,5,5w1[8:1],,
{8}5b,,4w8[8:1],,4b,,2-5[8:1],,
{8}2b/6-1[8:1],,6b/3-8[8:1],,3b/7-4[8:1],,7b/1>8[8:3],,
{8}1b/Cf,,,,5-1[8:1],5,1-6[8:1],2,
{8}3v8[8:1],,3,7-4[8:1],,7,3,2,
{8}1x>4[8:1],,7,8,1x<6[8:1],,3,2,
{8}1,8qq5[8:3]/1pp4[8:3],72,81,,,,,
{8}2-5[8:1]/6-1[8:1],,,,8,8h[4:1],7,6,
{8}5>2[8:1],6<1[8:1],5,6,,C,A2/E3/B2/A7/B7/E7,,
{8}5,68,71,8/2h[4:1],,7-4b[8:1],1-5[8:1],7-3b[8:1],
{8}1-6[8:1],7<4b[8:1],1,7x,,3,5/4-2-8-6-4[8:3],,
{8}4b/Cf,,,,8-4[8:1],8,4<7[8:1],3,
{8}2v5[8:1],,2,6-1[8:1],,6,2,3,
{8}4x-2-8[8:1],,8,6,4x-6-8[8:1],,8,2,
{8}4,5pp8[8:3]/4qq1[8:3],63,54,,,,,
{8}3>8[8:1]/7v4[8:1],,,,5,5h[4:1],6,7,
{8}8v3[8:1],7-4[8:1],8,7,,C,A6/A5/A4/A3/E6/E4,,
{8}2v5[8:1],5>7[4:1],2,7,6h[4:1],,2,3,
{8}8p3b[8:4]/4-1b[8:4],,,,,,,,
{8}2-6[8:1],,25,,8,1,2,3<8[4:1],
{8},8pp3[8:4],,6h[8:3],,,,,
{16}2,5,4,5,3,5,4,5,2,4,3,5,4,6,5,7,
{8}1x-4[8:1],8xp5[8:3],1x,8x,,,,,
{16}1x,4,3,4,2,5,4,5,3x,6,5,6,2,5,4,5,
{16}3x,4,2,5,4x,7,5,6,8x,7,1,6,3x,8,2,1,
{16}3x,8,2,7x,1,6,8x,5,1,6x,2,7,3x,8,4x,1,
{16}4b>5b[4:3],
