&title=ふゆみどり
&artist=霜月はるか
&first=0.02
&des=Ragna
&lv_5=13+
&inote_5=(93){4},{48},,,7/2>8[8:3],3/6,4/5,,,,,,,,,,{16}6<4[8:3],,,,2>6[4:1],,,,6z2[16:5],
,,,1,,8,,7,{48},,,,,,,,,8/1V35[4:1],2/7,3/6,,,,,,,,,,{16}5V71[4:1],
,,,1V35[4:1],,,,5z1[16:5],,,,8,,7,
,6,,7,{48},,,8/1h,2/7h,6/3h,{8}4/5h,{4},,{16},{96}5pp5[4:1],
4,{16},,,{64},,{96},{16}5>7[16:5],,,,4qq4[4:1],,,,4<2[16:5],,,,,,,,5p5[4:1]*pp5[4:1],
,,,5>5[2:1],,,,,,1,
,5>3[8:1],,3>1[8:1],,1s5[16:5],,,,,,,,2V48[4:1],,,,2/4pp8[8:3],
,,,,,,,1s5[4:1],,,,8/1,,,,,,7-4[8:1],
,4-7[8:1],,7-1[8:1],,1V74[4:1],,,,4>4[8:3],,,,3-7[8:1],
,,,3w7[16:5],{4},,{16},,,{96}1pp1[4:1],
8,{16},,,{64},,{96},{16}1V73[4:1],,,,8qq8[4:1],,,,8V26[4:1],,,,,,,,1p1[4:1]*pp1[4:1],
,,,1q3[8:3],,,,,,3<2[16:7],
,5<5[2:1],,7>3[16:4],,1>4[16:3],,,,6pp6[4:1],,,,6V41[4:1],,,,4p1[8:3],
,,,,,,,8s4[4:1],,,,8/1,,,,,,1-6[8:1],
,6-1[8:1],,1-4[8:1],,4p1[8:3],,,,,,5,
,6,,7,{48},,,1/8h,7/2h,3/6h,{8}5/4h,{16},,,,,,,,,6/8b>6[8:3],
,,,,,6qq8[8:3],,7V58[4:1],,,,7,,,,,,,,1V37[4:1]/7-5[8:1],
,,,1/7-1[8:1],,,,8<5[8:1],,,,2V48[4:1]/8qq5[8:3],
,,,2/8pp3[8:3],,,,,,,,5pp5[4:1],,,,5qq8[2:1]/3qq8[2:1],
,,,,,,,,,,,,,,,7/1V73[4:1],
,,,3V15[4:1]/1s5[4:1],,,,1,,,,,,4<8[4:1]/6>2[4:1],
,4/6<8[8:1],,,,,,,,1s5[4:1],,,,5V31[4:1]/1V75[4:1],,,,1bpp5[8:3],
,,,,,5qq1[8:3],,7V51[4:1],,,,7,,,,,,,,7V58[4:1]/8-4[8:1],
,,,7/8-3[8:1],,,,1-6[8:1],,,,4V61[4:1]/1q4[8:3],
,,,4/1p6[8:3],,,,,,,,4bq5[4:1],,,,4/5bp4[2:1]*>5[2:1],
,,,,,,,,,,,,,,,6/4q6[4:1],
,,,4V61[4:1]/6V41[4:1],,,,4,,,,,,2V86[4:1]/8V24[4:1],
,2/8-6[8:1],,,,,,,,5<1[4:1],,,,1-5[8:1]/5>1[4:1],,,,5,
,,,6V82[4:1],,,,2V46[4:1],,,,6<2[4:1],,,,2>2[2:1],
,,,4,,,,2z6[16:5],,,,,,1,
,2,,3,{48},,,5/4h,3/6h,7/2h,{8}1/8h,{4},,{16},{48}2,
3,4q5[4:1],,,,,,,,,,{16}5,,,,6,,,,7-5[8:1]/5V31[4:1],,3/5V73[4:1],
,7/5,,,,,,1,,2V41[4:1]/4-6[8:1],,4/6-1[8:1],,4/2,,,,,,2<2[2:1]/8>8[2:1],
,2/8<2[8:3],{4},,{16},,,{48}1h,
2/8h,7/3h,4/6h,5h,,,,,{1},
E
