&title=ダイジョブですか?
&artist=cosMo@BousouP
&first=0
&des=d1sher
&lv_5=14+
&inote_5=(254)
{40},,,,,,,,,,
{6},,,,,,,,,1w5[70#16:1],,1-6[95#16:1]*-4[95#16:1],,1-5[140#16:1],,1w5b[300#16:1],
{100}1bx,B1,Cf,B5,
{40},,,,,
{4},8-6[8:1]/1-5[8:1],8b/1b,
{4},
{10},,,,,,4,3,4,2,5,2,5,1h[12:10],,6h[12:10],
{40},,,,,,,,
{4},,,8-4[8:1]/1-3[8:1],8b/1b,
{40},,,,,,
{24}1,8,7,6h[3:2],,,,2,,,,2,3,4,5h[3:1],
{4},
(150)
{32}2,3,4,,8,,3,,7,6,5,,1,,6,,
{16}3,,5,4,,3b/6b,,,,
{40}
(230)
{8}1b^6[8:1],2,3,4^1[8:1],5,6,7^4[8:1],8,1,2^7[8:1],3,4,5h[16:1],5h[16:1],
5b^8[8:1],4,3,2^5[8:1],1,8,7^2[8:1],6,5,4^7[8:1],3,2,1b,,
2b-7[8:1],3,4,5-2[8:1],6,7,8-5[8:1],1,2,3-8[8:1],4,5,6h[16:1],6h[16:1],
6b-1[8:1],5,4,
{4},
(254)
{6}8b/1b,81,81,81,57,57,57,35,35,35,
13,13,13,18,18,18,
2h[12:1]/4h[12:1],1h[12:1]/8h[12:1],5h[12:1]/7h[12:1],4h[12:1]/5h[12:1],2h[12:1]/4h[12:1],
{1}1hb[1:1]/8hb[1:1],
{40},,,
{4},,,81,
{24}81,72,63,5h[14:20]/4h[4:1],,,,,,,,,,,4,3,2,1,8,7h[4:1],,,,,,,,,,,7,8,1,2,3,4h[4:1],,,,,,,,5,6,7,8,1,2b<2b<5b[1:1]*-8-6-4-2-8-6-4[1:1],
{4},,,,,,,,,Chf[15:10],,
{40},,,,,,E1/E8/E2/B8/B1/B7/B2/E7/E3/B6/B3/B5/B4/E6/E4/E5,
{40},,,,,,,,,,,,,6h[2:1],,,,,
{8},1,2,3h[2:1],,,6,7h[3:1]/C,
{40},,,
{12},,1,8,1,8,1,8h[4:1],
{40},,,,,,,,
{8},82,3,64,7,8h/1h,
{40},
{12},1,8,2,7,1,8,2,7,3,6,4,5,3b>6<3[2:1]b,,A3,,,A6,,,C,
{6},12,18,8h[4:1]/7h[4:1],,
{40},,8bs4[1000#8:1]/7bz3[1000#8:1],B7/B8,C,B4/B3,
{12},,,,63,,4,5,4,5,4,5,4,5,4,,
{6}54,56,67,
{20}78,1,2,3,4,7,6,5,4,3,2,
{6}1bx-6[500#8:1],1b-5[500#8:1],1b-4[500#8:1],1b-5[500#8:1],1b-6[500#8:1],,,
{16}8,7,6,5,8,7,6,5,1,2,3,4,5,6,7,8,1,2,3,4,1,2,3,4,1,8,7,6,{4}25,{6}3h[12:1]/4bh[12:1],3bh[12:1]/4h[12:1],1h[12:1]/2bh[12:1],7h[12:1]/8bh[12:1],7bh[12:1]/8h[12:1],5bh[12:1]/6h[12:1],{4},5x<8[8:1]/4x>1[8:1],5x/4x,,,
{40},,,,,,
(310)
{16}8b,1,2,3,8,1,2,3,8,1,2,3,
8b/4x,7,6,5,8,7,6,5,8,7,6,5,
8b/4x,1,2,3,8,1,2,3,8,1,2,3,
8b/4x,7,6,5,8,7,6,5,8,7,6,5bx/4b,
(254)
{4},5b/4b,3b/6b,2b/7b,1b-5b[127#8:1],8b-4b[127#8:1],1b,8b,
(225)
{8},2-4[8:1],2,7-5[8:1],7,1-4[8:1],1,8-5[8:1],8,3-6[8:1],3,7-2[8:1],7,1-3-5[6:1]*-7-5[6:1],1,
(254)
{4},
{40},,,
{16}3,4,2hx[5:1],,,8,1,7hx[5:1],,,5,6,4hx[5:1],,,6,5,7hx[5:1],,,1,8,{4}2,6-2[8:1]*-8[8:1],6,
{8},,2,,2,1,2,8,2,7,2,6,2,5,2,4,2,3,2,1,2,8b/1b,,,4,5,6b/3b,,8,7,1b/6b,,,,,
{40}B8,B7,B6,B5,B4,B3,B2,B1,B8/Chf[8:1],
{40},,
{8},,2bx/C,6bx/C,3bx/C,7bx/C,1bx/C,
{28},,,,2b,B1,B8,,,6b,B5,B4,,,1b,B2,B3,,,7b,B8,B1,,,,4b,B3,B2,,,
{4},
{16}3,4,2hx[5:1],,,8,1,7hx[5:1],,,5,6,4hx[5:1],,,6,5,7hx[5:1],,,1,8,{4}2,6-2[8:1]*-8[8:1],6,
{6}5x/3x,4,4x/6x,5,5x/3x,4b,4x/6x,5b,5x/3x,4b,4x/6x,5b,5x/3x,
(210)
{40},,,,,
{4}2-8[100#8:1]/6-4[100#8:1],7/3,2-4[100#8:1]/6-8[100#8:1],5/1,2-6[100#8:1]/6-2[100#8:1],2>6<2>4[100#2:1]/6<4[50#8:1],Ch[8:10],
{4},,,,,,
(177)
{24}A7/D8,E7,B6,B5,E5,A4,A3/D4,E3,B2,B1,E1,A8,A6/D6,E7,B7,B8,E1,A1,A2/D2,E3,B3,B4,E5,A5,
(254)
{4},,8x<5[63.5#16:1]/1>4[63.5#16:1],72,63,72,8b/1b,
{6},,1-5[8:1],2,1b/7-4[8:1],8,7b,1hx[10:1]/8hx[10:1],1hx[10:1]/8hx[10:1],7b/2b,2-4[8:1],2,7-5[8:1],7,1-4[8:1],1,8-5[8:1],8,3-6[8:1],3,7-2[8:1],7,1-3-5[6:1]*-7-5[6:1],1,
{6},,8,7hb[17:10],8,
{16}8b,1,2,3,4,5x,6,7,8,1b,6b,5,4,3,2x,1,8,7b,2b,3,4,5,6x,7,8b,6b,5,4,3,2xb,
{8},2,3,4bh[2:1],
{24},7,6,5bxh[4:1],
{8},,,8b-4b[127#16:1]/1b-5b[100#16:1],7/2-6b[107#16:1],6x/3x,54,8b,1b,2b,
{8},,7bx/6bx,,7bx/6bxh[2:1],,8,,1,,2bxh[2:1],,3,,4,5/4,63,
{12}4,5,4,5,
{16}4bx,5bx,6bx,7bx,8bx,1bx,2bx,3bx,4bxh[23:10]/2bx,1bx,8bx,7bx,6bx,5bxh[8:1],
{6},63,63,72,8z4[8:1]/1s5[8:1],
{40}81,B8/B1,Cf,B5/B4,
{4},,
(180)
{16}78,6,5,4,7<2[16:5],6>1b[16:5],5>8[16:5],4>7b[16:5],A7,A6,A5,A4,7/A3,6/A2,5/A1,4/A8,3bw7b[8:1]/A7,,
{40}B3,Cf,B8/B7/B6,
(254)
{8},,,54,6,7<2[2:1]/1bxh[1:2],,,,,,,,,2>5-8[2:1],
{10},,,,,,,,,3,4,2,6,5,7,2,,1b/3b,7,,8b/6b,,3,1,2,6,8,7,3,,4b/2b,6,,7b/5b,
(132)
{32},,1,8,1,8,1,8,1,8,1,8,1h,2x,7b,6x,1,2x,7b,6x,2,3x,8b,7x,3,4x,8,7x,Cf,
(254)
{4},Chf[4:1]/7xh[4:1],,Chf[4:1]/6xbh[4:1],,Chf[4:1]/5xh[4:1],,Chf[4:1]/4xbh[4:1],,Chf[4:1]/3xh[4:1],,Chf[4:1]/2xbh[4:1],,Chf[4:1]/1xh[4:1],,Chf[4:1]/8xbh[4:1],,Chf[4:1]/7xh[4:1],,Chf[4:1]/6xbh[4:1],,Chf[4:1]/5xh[4:1],,Chf[4:1]/4xbh[4:1],,Chf[4:1]/3xh[4:1],,Chf[4:1]/2xbh[4:1],,Chf[2:1]/1xh[4:1],,
(254)
{2}6V48[1:1],2,8V64[1:1],2,4V62[1:1],3,2V84[1:1],3,4V68[1:1],2,8z4[1:1],2,4s8[1:1],2,1,45,
{40},,,
{3},6bx/5bx,4bx/3bx,2bx/1bx,8bx/7bx,
{8}1bx-5b[8:1],2bx,8bx,1bx,
{40},,
{3},6bx/5bx,4bx/3bx,2bx/1bx,
{40},,,8bx/7bx,,,,,,,,,,,
{16}E2,B2,
{8}B3,
{16}B8,B7,
{4}E7,4bx/5bx,
{12}B2/E2,E1,D3,B6/E6,E5,D7,B2/E2,E1,D3,
{16}A7,D7,A6,D6,A2,D3,A3,D4,
{32}D7,D6/E6,D5/E5,D4/E4,D3/E3,D2/E2,D1/E1,D8/E8,A6/E7,A5/E6,A4/E5,A3/E4,A2/E3,A1/E2,A8/E1,A7/E8,
{24}A6/C/D6/D7/E6/E7,,,8bx/A8,7bx/A7,6bx/A6,5bx/A6,8bx/A8,7bx/A7,6bx/A6,5bx/A6,8bx/A8,7bx/A7,6bx/A6,5bx/A6,8bx/A8,7bx/A7,6bx/A6,5bx/A6,8bx/A8,7bx/A7,6bx/A6,5bx/A6,8bx/A8,7bx/A7,6bx/A6,5bx/A6,8bx/A8,7bx/A7,6bx/A6,5bx/A6,8bx/A8,7bx/A7,6bx/A6,5bx/A6,8bx/A8,7bx/A7,6bx/A6,5bx/A6,8bx/A8,7bx/A7,6bx/A6,5bx/A6,
{2},,,,,,,,4,3,2,1,
{4}8,7,6,5,
{12}4,3,2,1,8,
{24}7,6,5,4,3,2b-8b[8:1]/7b-4b[8:1],,,,,,
{8},,,,1-3[8:1]/8-4[8:1],,18,,1-5[8:1]/8-6[8:1],,18,,8/1^4[8:1],,{16}15,6,7,8,1,,
{8}2b/8b,,4-6[8:1],,4/8-4[8:1],,8/2-8[8:1],,26,6,,7-4[8:1],8-3[8:1],7,8,,2b/6b,,
48,,2^5[8:1],1,{4}2/8^5[8:1],8-4[8:1],8^3[8:1],8-4[8:1],8b,2b/6b,
{4}8b-6[8:1]/1b-5b[8:1],8b-4[8:1]/1b-3b[8:1],8b-6[8:1]/1b-5b[8:1],8b-4[8:1]/1b-3b[8:1],8b-6[8:1]/1b-5b[8:1],8b-4[8:1]/1b-3b[8:1],,,
(174)
{8}1b^4[8:1]b/5,,15,{24}5,6,7,{8}8,38,5b/6b,34,{16}2,1,3,8,5,6,3,4,8,7,1,6,3,5,4,6,
{8}5/7^4[8:1],,78,{24}8,1,2,{8}3-8[8:1]b,5,3b/6,6,{16}17,2,3,4,51,6,7,8,15,2,3,4,56,,56,,
{12}38,2,1,47,6,5,16,8,7,2b/5b,3,4,{16}2,1,2,8,2,7,2b,6,
(205)
{24},1,,,15,,,1b/5b,2x/6x,3x/7x,4x/8x,,,
1x/5x,,,1x/5x,,,1b/5b,
4x/8x,3x/7x,2x/6x,1x/5x,,,1x/5x,,,1b/5b,2x/6x,3x/7x,4x/8x,,,
1x/5x,,,1x/5x,,,1b/5b,
4x/8x,3x/7x,2x/6x,1x/5x,,,1x/5x,,,
{16}2,6,2,6,2,6,2,6,
2b>5[8:1],,1,8,2-6[8:1],,6,6,2,,
7,7,2-5[8:1],,1-6[8:1],8,
{8}2,1,3,3,
{24}2-6[8:1]/5,1,8,
{8}7,2,8,
{16}7-4[8:1],,6,5,
7-3[8:1],,3,3,7,,2,2,,
{8}8<5[8:1],1>4[8:1],8b,1b,
(240)
{8},,27,
{16}27,3,4,5,6,7,8,1,25,4,3,2,1,8,7,6,{32}5/1b,2,3,4,5,6,7,8,1,2,3,4,5,6,7,8,1/6b,5,4,3,2,1,8,7,6b,5,4,3,2,1,8,7bx,
(254)
{40},,,
{8},,,,,,,,,,,,,,,,,,,,,,,,,,,,,,1b/5b,7b/3b,,,,,,,,,,,,,,E
