&title=PPPP
&artist=TAK
&first=1.1
&des_1=SetDesigner
&des_2=SetDesigner
&des_3=SetDesigner
&des_4=SetDesigner
&des_5=chips
&lv_5=13+
&des_6=SetDesigner
&des_7=SetDesigner
&des=SetDesigner
&inote_5=(152)
{8}1/8,
{16},6,
{8}5,2,5/4,,4,,5h[4:1],,6h[4:1],,7h[4:1],,1,,8/2,
{16},4,5,,
{8}2,6/4,,1,,7h[4:2]/2,,1v4[8:1],,1,,3x/4x,,1,B5,2,B6,3,B7,4,5,6h[4:2],,2,,3-1<8[8:1],,3/4h[8:1],,8/7h[4:2],,2,3,4,,3/4,,2/3,,1h[4:1]/2,,8b,,6/4,3,5/2,7,
{16}2,1,2,1,
{8}2,8/3,
{16}4,7,4,7,
{8}4<8-6-4[4:2],,4/3,,2h[4:1],,,,5h[4:1],,4,3,2,,5/6,,4,,3v8[8:1]/2,,3/4,,
{16}7,5,6,,2b,,,1,,,1p5[8:1],,8,,1/7,,B6/B5/E6f,,,,1-5[8:1]/8,,2,,1/8-4[8:1],,7,,1h[8:1]/8,,,,8,7,8,7,8x,,,B4/B3/E4,,,8q4[8:1],,3,,8/2,,B3/B4/E4f,,,,1-5[8:1]/8,,2,,1/8-4[8:1],,7,,1h[8:1]/8,,,,Cf,,,,
{12}E8,E7,E6,E5,,,3,1,2,8,,,6,5,7,3,4,2,7,6,8,2,,,
{8}1/7,,,2/5,3,,,1/4,3,,6,7,8/1v4>3[8:1],,1,,
2,3,4h[4:1],,8,7,6h[4:1],,2h[4:2],,3,,4bh[8:2],,3bx-7[8:1]b,,3bx/2bx-6[8:1]b,,2bx/1bx-5[8:1]b,,1bx/8bx-4[8:1]b,,8bx/7bx,,1h[4:1],,2,3,4>1[8:1],,4x,,5,6,7h[4:1],,3,2,1h[4:1],,8h[4:2],1,2p5[8:1],1,2,,
{16}6,,2,,4x,3,4,,1h[8:1]/6,,
{8},5x,4,6h[8:1]/2,3,1h[4:2],
{16}E8,E7,E6,,B4,,A3h[8:2],,A2h[8:1],,E3f,,
{8},8/1q5[8:1],7,6h[8:1]/1,,1/8p4[8:1],2,3h[8:2]/8,,6,6,5/3h[4:1],,4,5/6,4bxq8[8:1]b/5bx<7[8:1]b,,5bxp1[8:1]b/4bx>2[8:1]b,,4bxq8[8:1]b/5bx<7[8:1]b,,5bxp1[8:1]b/4bx>2[8:1]b,,4bx/5bx,,3h[8:1]/4,7,6h[8:1]/5,2,2h[4:1]/1s5[8:1],8,,,3/5,2,6/4,7,
{16}1,7,1,,
{8}6,2h[8:1],3h[4:1],,4h[4:1],,5h[4:1],,
{16}E6,B6,B7,,2,1,2,,
{8}8h[8:1]/7,5,6,2>5[8:1],7,2,6h[4:1],
{16}2,3,4,,
{8}8,B1h[4:1],,C/E6/E5/B5/A5,,
{16}3,4,3,,
{8}5,6,7h[4:1],,3,2,Ch[4:3],,B6h[4:2],,B3h[4:1],,E5/B4/B5/B2/B7/B8/B1,,1/7,
{16},2,3,,
{8}5,4h[4:1],,6,,1/B6/B7/E7,,2/B4/B5/E5,,3h[4:1],,8b,,7,
{16},4,3,,
{8}3,4/5h[4:1],,6h[4:1],,7h[4:1],,8h[4:1],,6,6,5b,,3h[4:2]/4,,4,5,6h[4:1],,2b,,5h[4:2],,7,8,1pp3[8:1],,1b,,8h[4:2],,2v5>4[8:1],,2,,6bh[4:1],,5h[4:1],,1v6[8:1],,1/3,,4b/5b,,8<5[4:1],,4v7[4:1],,3,,1b,
{16}2,3,4h[4:1],,
{8},7,8,1h[4:1]/2>3-5[8:1],,2b,,8h[4:2],,E7,E6,E5,,3x/4x-1[8:1],,3-7[8:1]/4,,3/1,,7/1,,
{16}E8/B8,B6,E5/B4,,
{8}2,
{16},1/8,,,7q3[8:1],,6/5,,7,,B2/B3/E3f,,,,1/2-5[8:1],,3,,8-4[8:1]/2,,7,,8/1-6[8:1],,2,,1/2,,,,1x/5x,,,2/6,,,7/2p6[8:1],,8,,1/2,,B7/B6/E7f,,,,3,,6-8>1[8:1],5,7,,6x,,2-5[8:1],,8,,2/7,,,,
{12}2,2,4,4,,,E1,B7/B6,E3,B4/B5,,,2,2,8,8,6,6,4q8[8:1],4,2,2,,,E6h[4:6]/E5h[4:6]/7,,8,,1,,2,,3,,E3,,E2,,E1,,E8,,
{16}1s5[8:1],8,,,1/7,,,,
{8}7hx[4:1],E4/B3,1hx[4:1],E5/B5,4hx[4:1],E8/B8,2hx[4:1],E7/B6,5hx[4:1],B1/E2,3hx[4:1],E5/B5,6hx[4:1],B1/E2,B3/E3,,3hx[4:1],B6/B7,7hx[4:1],E1/B1,1hx[4:1],B4/E5,5bx-1[8:1]b,,5bx/6bx-2[8:1]b,,6bx/7bx-3[8:1]b,,7bx/8bx-4[8:1]b,,8bx/1bx,,3hx[4:1],E8/B7,5hx[4:1],E1/B1,1hx[4:1],E4/B4,6hx[4:1],E3/B2,1hx[4:1],B5/E6,7hx[4:1],E1/B1,2hx[4:1],B5/E6,B7/E7,,2/B4/B5,,,3/6,4,,,8h[8:5]/1,E2,,E3,,E4,,E5/B4/B5/B2/B7/B8/B1/C/B6/B3,,8<5[4:2],1,2,,1p4[4:2],2,3,,3h[4:1],,,2,1h[4:1],,8w4[4:2]b,,,,,,,,1w5[4:2]b,,,,,,,,B6/E6/E4/B3,,1>4[4:2]b,8,7,,8q5[4:2]b,7,6,,6h[4:1],,,7,8h[4:1],,
{16}1,2,3,,6,5,7,,
{8}1,7h[8:1],2,3pp5[8:1],8,3,8h[4:2],
{16}E2,E3,E4,,B5,,A6h[8:2],,A7h[8:1],,E7f,,,,
{8}2h[8:1]/8h[8:1],,7h[8:1]/3h[8:1],,6h[4:1]/4q8[8:1]b,,,,7<4[8:1]/8,1,2h[8:1]/7b,,2-5[8:1]/1,8,7h[8:1]/2b,,3h[8:1]/6,8,1/2v5[8:1],,2/7,,8bxq4[8:1]b/1bx>3[8:1]b,,1bxp5[8:1]b/8bx<6[8:1]b,,8bxq4[8:1]b/1bx>3[8:1]b,,1bxp5[8:1]b/8bx<6[8:1]b,,8bx/1bx,,7h[4:1]/8,1,2v5[8:1],,1h[4:1]/2,,B4/E4,,5/6,3/4,2,1/2,
{16}8,7,8,,
{8}6,6,4h[4:1],,3h[4:1],,2h[4:1],,E7/B6/B7,,
{16}8/2,3,4,,
{8}6h[8:1]/5,3,2h[8:1]/4,5,6/7,6/7h[8:1],1h[4:1],
{16}8,7,6,,
{8}7,8/1q5[8:1]b,1/2,,,2q6[8:1]/1,3,2/8,,7b<5[8:1]b/8bp4[8:1]b,,7bx/8bx,,7/8p4[8:1],1,2/8,,3b<5[8:1]b/2bq6[8:1]b,,2bx/3bx,,8,7,5/6,5/4,2h[8:1]/3,1,7/8,1/2,8,
{16}2,3,4,,
{8}6,4h[4:1]/5-7-1[8:1],,,,2/5,3,6/3,5,
{16}1,7,1,,
{8}6,6,7h[4:1],,8h[4:1],,1h[4:1],,
{16}E2,B2,B3,,5,4,5,,
{8}3/4,2,1h[4:1],8v6[8:1],,8,2h[4:1],4,B5h[4:2],,B3h[4:1],,Cf/B7/B8/B1,,
{16}6,5,6,,
{8}4,3,2h[4:1],,6,7,Ch[4:3],,B6h[4:2],,B3h[4:1],,E5/B4/B5/B2/B7/B8/B1,,2/5,
{16},3,4,,
{8}1h[8:1],7h[4:1],C,1,,2h[4:1],,3h[4:1],,1h[4:1],,
{16}B8,B7,B6,B5,
{8}1h[8:1],E5,2h[8:1],E6,3h[8:1],E7,4h[8:1],E8,2h[8:1]/8,,1w5[8:1]b/7h[8:1],,1,
E
