&title=雪は何色
&artist=Kotoha
&first=0.75
&des=ましろ色ペタル
&lv_5=14
&inote_5=(179)
{8}
2bpp4pp6pp8pp2[4:6],,,,,,,,,,,,,,,,
7,7h[4:1],,5h[4:1],,6h[4:1],,2h[4:1],,4h[4:1],,3p6[4:1]b,,3,Cf,,
5,5>7[4:2],,2<4[4:2]b,,7<1[4:2],,4>6[4:2]b,,1<3[4:2],,6^3[4:1]b,,3,,
2q7[4:1],1,2,,8h[4:1],,6h[4:1],,4q5[8:3],,1,2,3>6[8:3],,,Cf,,
5hb[4:6],,4,,,3,2,,,3,4,,3,3,6,6,4qq1[8:5],,5,6,,7,,8qq5[8:5],,2,2,,,3,3,,
4hb[4:6],,5,,,6,7,,,6,5,,6,6,3,3,5pp8[8:5],,4,3,,2,,1^4[4:1],,7,7,{16}A6,E6,E5,E4,A3,,E1f/E2/E8/D2/D8,,,,
{8}
4-8[8:1]/5,,4/6,7-3[8:1],,7/2-6[8:1],,2/8w4[8:1],,8,,2h[4:1],,4,3/5,6,7h[4:1]/1,,8,5-8[8:1]/6,,5/4-1[8:1],,4/3>6<3[8:5]b,,Ch[8:5]f,,,,,,,
5-1[8:1]/4,,5/3,2-6[8:1],,2/7-3[8:1],,7/1w5[8:1],,1,,7h[4:1],,5,6/4,3,2h[4:1]/8,,1,4p7[8:1]/3,,5,5,,6h[4:1]/4,,5,8p3[8:1]/7,,1,1,
2,8x/4h[4:1],,7,1x/5h[4:1],,2,3xbqq5[4:3]/6xbpp4[4:3],,,,,,,,,,2-4z8-6[4:4]b/7-5s1-3[4:4]b,,,,D5f,,,,,,,,{16}5,4,5,,E2/E8/D2/D8/A2/A7,,,,
{8}3bqq5[8:3]/6b,,7,,,6,6,4,5-1[8:1],3,5,2p8[4:1],,8<2[8:3],,5h[8:5],,,,,
{16}1x,6,1,6,8,7,8,7,4x,5,4,5,2,1,2,1,8x/3,4,5,6,7,8,1,2,
{8}5xbv8[8:1]*v2[8:1]/3,,,,,1,7/8,6,5q1[8:1]/4,,3/5,2q6[8:1],,2/8p4[8:1]b*q4[8:1]b,,{32}8xb^5pp4[4:2]*^3qq4[4:2],Cf,,,
{8},,,,,,,3,4-8-6[16:3]/2h[4:1],,4,1V35[8:1],,1/7-3[8:1]b,,{32}D7/D8,B6/B8,Cf,B2/B4,
{8}D3/D4,,,2-5[8:1],1-6[8:1],2<3[8:3],1,2,,1,1,8-3[8:1]*-5[8:1],,8^2v4[4:1]*^6v4[4:1],,8b,,,,3-5[8:1],5-1[8:1],1-7[8:1],7-3[8:1],6h[4:1],,,5,4-8[8:1]/2-6[8:1],,2x/4x,,7h[4:1],
{16},,5,4,3,2,1,8,4,5,6,7,1/8,2,3,4,7,5,7,6,7,8,7,1,{24}6,5,4,3,2,1,8,7,6,
{16}5b-1-3[4:1]/4b-8-6[4:1],,,,,,E1,,,,2x,3,4,5,7,6,5,4,{24}1x,2,3,8,7,6,2,3,4,7,6,5,{32}3x,4,5,6,7,8,1,2,3,4,5,6,7,8,1,2,
{8}6bpp4[8:3]/3b,,2,,,3,3,5,4-8[8:1],,4/6,7q1>7[8:5],,2,3,4h[8:5],,,,,
{16}8x,3,8,3,1,2,1,2,5x,4,5,4,7,8,7,8,1x/6,5,4,3,2,1,8,7,
{8}4xbv1[8:1]*v7[8:1]/6,,,,,8,2/1,3,4p8[8:1]/5,,6/4,7p3[8:1],,7/1p5[8:1]b*q5[8:1]b,,{32}1xb^4qq5[4:2]*^6pp5[4:2],Cf,,,
{8},,,,,,,6,5-1-3[16:3]/7h[4:1],,5,8V64[8:1],,8/2s6[8:1]b*z6[8:1]b,,{32}2xb-4-6-8q1-3-5-7[4:7],Cf,,,{8},,,,,,,,,,,,,1x,1x,8xbw4[8:5]b,,,,,,,,,2xbh[4:1]/6xbh[4:1],,,,3x-8[8:1]b/7x-4[8:1]b,4x/8x,Cf/E4/E8,,
{8}5x,1-5[8:1],,2-6[8:1],,3-7[8:1],,4-8[8:1],,5-1[8:1],,6-2[8:1],,7-3[8:1],,1,8,4^1[8:1]*-1[8:1],,4-8[8:1],,4^7[8:1]*-7[8:1],,4p5[8:3]*>5[8:3],,,,,,,2b/7b,,
{8}1x,8-4[8:1],,7-3[8:1],,6-2[8:1],,5-1[8:1],,4-8[8:1],,3-7[8:1],,2-6[8:1],,8,1,5^8[8:1]*-8[8:1],,5-1[8:1],,5^2[8:1]*-2[8:1],,5q4[8:3]*<4[8:3],,,,,,,2b/7b,,
{8}5hb[8:13]/4,,6,,,7,8,,,1,2,,,3h[4:1],4,2bq8q6q4q2[4:8],
