&title=The World Tree
&artist=uma
&first=-0.078999996
&des=Hakusei
&des_5=Hakusei
&lv_5=13+
&inote_5=(155){4},,,,3h[4:1],
5,{8}6/4,7,{4}2/8h[4:1],
{8}1,1,8,8,7/1,{24}1,2,3,{4}4/5,
6h[4:1],4,{16}4,5,{8}3,2,2,
7-4[8:1],7,1-5[8:1],1,{4}8,8w4[8:1],
Cf,{16}2/5,,,3,{8}4,3,{4}5/2h[4:1],
{8}8,{16}1,1,{8}7,2,8/2,{24}8,7,6,{4}5/4,
3h[4:1],{8}5,5,{16}2,4,{8}2,1/8,1/8,
{4}Ch[4:3],,,8-4[8:1],
8/1,1-3[8:1],5h[8:1],1-5[8:1],
1/8,8-6[8:1],4h[8:1],8-4[8:1],
8/1,3-1[8:1],{8}8,8,{4}3-7[8:1],
3/5,6-8[8:1],{8}1,1,{4}Cf,
{8}2,2,3/5,3/5,6,6,5/7,5/7,
8,8,1/7,1/7,2,2,3/1,1/3,
{16}4,5,4,6,4,5,4,7,4,5,4,8,4,5,4,1>7[16:9],
{1}4bh[4:3],
{4},5h[8:1]/1v6V83[2:1],5h[8:1],5h[8:1],
5h[8:1],6h[8:1]/4z8[4:1],6h[8:1],7-3[8:1],
A7f,1h[8:1],1h[8:1]/4q8<5[8:3],2h[8:1],
2h[8:1],3h[8:1],C,{8}5/4,6,
{4}7x-3[8:1],7/1x>4[8:1],1x<6[8:1],1/5x>2[8:1],
5x-8[8:1],5/1x-5[8:1],1x>6[4:1],1xh[4:1],
,2x-6[8:1],2/8x<5[8:1],8x-2-7-3-6-4[4:3],
{1}8bxh[4:3],
{8}5/3,{16}3,4,{8}2,1,{16}8/7<4[8:1],,,1,{8}7,2,
3>8[8:1],{16}4,5,{8}3,6,7,8,{16}2,1,{8}3,
4/6,{16}6,5,{8}7,8,{16}1/2>5[8:1],,,8,{8}2,7,
6<1[8:1],{16}5,4,{8}6,3,{2}2-6[8:1],
{8}7,{16}7,8,{8}6,5,{16}4/3-1-5[4:1],,,5,{8}3,6,
7-4-1[4:1],{16}6,5,{8}7,3,3,{24}B4,E4,,,,,{8}7,
{16}7<4[8:1],,,1,{8}7,2,{16}3-1-5[4:1],,,5,{8}3,6,
{4}7h[8:1],4/7h[8:1],{16}3,4,{8}2,{16}8,1,7,2,
{8}8-4[8:1],{16}2,2,{8}8-3[8:1],1,8<5[8:1],2,8,{24}2,3,4,
{8}8,7,6/4-1[8:1]*-7[8:1],5,{4}4b,{16}2,8,1,7,
{4}8>3[8:1],8/5-1[8:1],{8}5/4-8[8:1],3,4/7-1[8:1],6,
7b-5[8:1],4,{4}7b-2[8:1]/3b-6[8:1],3b/7b,{16}1,8,2,7,
{8}1-5[8:1],{16}7,7,{8}1-6[8:1],8,1>4[8:1],7,1,{24}7,6,5,
{8}1,2,3/5-8[8:1]*-2[8:1],4,{4}5b,{16}7,1,8,2,
{4}1<6[8:1],1/4-8[8:1],{8}4/5-1[8:1],6h[16:1],5/2-8[8:1],3,
2b-4[8:1],5,{4}2b-7V13[2:1]/6b-3V57b[2:1],{2}2b/6b/Cf,
{8},,,,,,,,,,,,,,,,5/3h[2:1],
,,6,{4}6,{8}E7/B7,4,
{4}4h[2:1],{8},,,,B7,B3,
6h[2:1],,,3,{4}3,{8}B2/E3,5,
{1}5h[2:1],
{8}5/3h[2:1],,,B6,{4}B6,6/5,
{8}B3,B3,5,B3,{4}B3,2/8,
{8}1/7h[2:1],,,B2,{4}B2,6/4,
2h[8:1]/3h[8:1],8h[8:1]/1h[8:1],{2}4bh[4:1]/5bh[4:1],
{4}6/5,{16}4/7,,,6,{8}5,6,{4}5/6,
{8}4/7,{16}6,6,{8}5,6,{4}5h[8:1]/6h[8:1],4h[8:1]/5h[8:1],
3/4,{16}5/2,,,3,{8}4,3,4/3,3,
{16}4,4,{8}3,2/5,2/5,{2}1h[4:1]/8h[4:1],
{4}8/2>5[8:1],{16}2/5,,,7,{8}7-4[8:1],8,{4}7,
{8}3-8[8:1],{16}5,5,{8}3,6,{4}7h[8:1]/1h[8:1],1h[8:1]/7h[8:1],
{8}2/8,2/8,3,3,{16}6,5,6,5,1,2,1,2,
{4}1>7b[2:1],,,Cf,
2-4[8:1]/5-1[8:1],5/2-6[8:1],{8}2/8,7,{4}7-4[8:1],
{8}7/3-8[8:1],2,3/5,6h[4:1],{24}1<6[8:1],2,3,4,,,{8}1,2,
{4}3-5[8:1]/5-8[8:1],3/5,{8}2-6[8:1],2,7,7,
{16}8-4[8:1],8,{8}1-5[8:1],8,1,{32}8w4[8:1],1,2,3,4,5,6,7,{4}8,
7-5[8:1]/4-8[8:1],4/7-3[8:1],{8}7/1,2,{4}2-5[8:1],
{8}2/6-1[8:1],7,6/4,3h[4:1],{24}8>3[8:1],7,6,5,,,{8}8,7,
{4}6-4[8:1]/4-1[8:1],6/4,{8}7-3[8:1],7,2-5[8:1],2,
6-8[8:1],7,6/2-4[8:1],3,{4}6-3[8:1]/2-7b[8:1],2b/6b/Cf,
,,,,B2/E3/B3,
B7/E7/B6,{16}4,5,{8}4,{4}7b/2b,
1-5[8:1]/8-6[8:1],1/8-4[8:1],{8}8/2-6[8:1],3,2/6,7,
{16}8,8,{8}1,2b-5[8:1],5bV38[8:1],{24}8b-4b[8:1],7,{12}6,{24},,7b,6,{6}5,
{4}7-5[8:1]/1-5[8:1],1/7-3[8:1],{8}7/2-5[8:1],1,2/6,7,
1/8b,3,8/1b,6,2b/1,4,8/7b,5,
{16}3,4,3,2,{8}3h[8:1],5,{16}7,8,7,6,{8}7h[8:1],1,
1,{24}1,2/8,7/3,{8}6/4,5,{4}5w1b[8:1],5b/Cf,
{8}7h[16:1],7h[16:1],1h[16:1],1h[16:1],{16}8,2,8,2,4,3,4,3,
{8}8,{24}8/4,7/3,6/2,{8}5/1,8/4,{4}4x-7b[8:1]`8x-3[8:1],4bx/8bx,
E
