&title=宝箱のジェットコースター
&artist=Petit Rabbit's
&first=0
&freemsg=
&wholebpm=158
&des_1=
&des_2=
&des_3=
&des_4=
&des_5=もふもふウサギ
&lv_5=12
&inote_1=
&inote_2=
&inote_3=
&inote_4=
&inote_5=(158){1},
{4},{8},
1,1v4[8:1]*^7[8:1],,{4},
16,25,34,38,47,56,
{8}
6,6,7,8h[2:1],,1,2,3h[4:1],,4,2,8b/1b-5[4:1],,8,7,6,,
8,8,8-5[4:1],,1,2,3h[4:1],,4,25,1V37[4:1]/6,,8,7,6h[4:1],,
{8}
4<3[16:7]*<4[2:1],6<5[16:7]*<6[2:1],{8}8>7[16:7]*>8[2:1],
{4},,,26,
4/8>8[2:1],,,1b,
{8}
34,2,34,5,1-5[8:1],6pp1[2:1],1,6,,4,3,2-6[8:1],,8,8,,
57,4,35,2,1-5[8:1],6^1[8:1],1,6,,3^8[8:1],3,4,,78,78,,
35,2,64,7,8-4[8:1],3qq8[2:1],8,3,,5,6,7-3[8:1],,1,1,,
52,3,47,6,45,36,27,1/8h[4:1],,3,27,1h[4:1]/6,,{16}3,4,5,6,7,8,
{8}
1/2-4[8:1],2,8,7,6/5-1[8:1],,6,7,8/2-4[8:1],2,7,6,4-2[8:1]/5-1[8:1],,45,,
8,7,6,5,3/4,2,1,8,3/7-4[8:1],,3,1-5[8:1],,6,8b,,
8/7-5[8:1],7,1,2,3-1[8:1]/4-8[8:1],,34,,7-5[8:1],7,4qq2[8:1],4,5pp7[8:1],,,,
1,28,3,4,65,7,8,6/2-5[8:1],,6,8w4[8:1],,8b,,{16}6,5,7,5,
{8}8-4[8:1],8,3-7[8:1],3,7>4[4:1],6,5h[4:1],,,{16}6,5,
{8}7-3[8:1],7,3<8[4:1],2,1,,
2bpp3[8:1],,7qq6[8:1],7,1bpp2[8:1],,8,8h[2:1],,
4,3,2,1pp3[8:1]/8qq6[8:1],,1b/8b,,
1-6[8:1]/2,,2,2V46[4:1],,6V82[4:1],,2V48[4:1],,7,6,5,,
3^8[8:1],3,4,,6^1[8:1],6,5,,
{16}2-5[8:1],2,8,,8,,,,7-4[8:1],7,1,,1,,,,
{8}
3,3qq5[2:1],4,
3,,6,{16},7,{8}7,6pp4[2:1],4,
6,,3,{16}3,,{8}2,2,3qq5[2:1],5,
3,7-4[8:1],,7,,18,27,36,45,,
2V48[4:1]/7V51[4:1],{4}27,,2b<6[4:1]/7b,
6q4[4:1],4,7>3[4:1],
3p5[4:1],5,4qq5[16:5],
{8}5,6,7,6pp5[16:5],,4,3,2-6[8:1],,6,7,8-4[8:1],,8/3<1[2:1],2,
1,8,1,2-5[8:1],3,
2/8-4[8:1],7,2-5[8:1]/8,3,2/7-4[8:1],6,
7/1-5[8:1],2,7-4[8:1]*-3[8:1]/1,6,7,,
2,3>6[4:1],3,4b,,5<2[4:1],5,3b,,4w8[8:1],4,
,,,2v4[8:1]/6v8[8:1],26,,,{4}2b/6b>2[4:1],
2q8[4:1],8,3<7[4:1],
7p1[4:1],1,5pp4[16:5],
{8}
4,3,2,3qq4[16:5],,5,6,7qq8[16:5],,3,2,
1bpp8[16:5],,8,7,6h[4:1],,
2-5[8:1],2,6,,7-4[8:1],7,3,,
1-4[8:1]/2-5[8:1],12,12,,7-4[8:1]/8-5[8:1],78,78,,
{8}
3>4[16:7]*>3[2:1],1<2[16:7]*<1[2:1],{8}7<8[16:7]*<7[2:1],
{4},,,15,
3/7>7[2:1],,,1b-3[8:1],
4-8[8:1]/1,4/7-5[8:1],1-5[8:1]/7,{8}16,
{4}
7^2[4:1],2^5[4:1],5^8[4:1],8,{16}1,2,{8}3V51[4:1],,,,
8,{16}3,4,2,4,{8}1^4[8:1],8,7,6,45,3,2h[8:3],{16}4,5,6,7,
{4}
8-4[8:1],2-6[8:1]/8,{8}28,7>4[4:1],,3h[2:1],,,{16}6,7,{8}8,1,28,3-8[8:1]/7,,
{8}
3b/4,5,5,6b-1[8:1]/2b,,6,5b,4,4,7b-4[8:1]/3b,,7,8b,1,2,
1-5[8:1]/3,,,4qq8[8:3],,5,5,6,7-2[8:1],,3<1[8:3],,7h[8:3],,,,,
{4}
2-4[8:1]/6,2/1-5[8:1],1/4-8[8:1],4/5-7[8:1],
2-4[8:1]/5,2/1-5[8:1],1/4-8[8:1],4/6-1[8:1],
{8}3-8[8:1],3,7,7,4,{16}4,5,3,6,{4}2b,
{8}1b/8b,{4}2b/7b,,,
3h[4:3]/8h[4:3],,,{8},1h[2:1]/6h[2:1],,,,,5,4,5,
3h[8:11],,,{4}6,,7,,{8}8,1,28,37,{4}4/6-8[8:1],
2-4[8:1],7-1[8:1],3-5[8:1],8-2[8:1],4-6[8:1],1,
{8}
2,3>6[4:1],3,4b,,5<2[4:1],5,3b,,4w8[8:1],4,
,,,2v4[8:1]/6v8[8:1],26,,,{4}2b>6[4:1]/6b,
6pp8[4:1],1,7<3[4:1],
3qq1[4:1],8,4qq5[16:5],
{8}
5,6,7,6pp5[16:5],,4,3,2pp1[16:5],,6,7,
8bqq1[16:5],,1,2,3h[4:1],,
6-1[8:1],6,4,,2-5[8:1],2,8,,
4-8[8:1]/7-5[8:1],47,47,,4-8[8:1]/1-3[8:1],41,
4^6[12:1]*^7[8:1]*<8[6:1]*<1[24:5]*<2[4:1]*<3[24:7]*<4[3:1]/1,,,,,
{16}
7b,,3,4,3,,7b,,3,4,3,,7b,,18,,
2b,,6,5,6,,2b,,6,5,6,,2b,,81,,
{1}3bqq8[2:1]/7bqq4[2:1],
{4}6bpp1[2:1]/2bpp5[2:1],,,{16},,84,73,
{1}6<6[4:7]/2>2[4:7],,,,E
