&title=Maze
&artist=savage genius
&first=-0.05
&des=迷途羔羊
&lv_5=13+
&inote_5=(138)
{4}
,,,,,,,,,
{24}
4,5,4,5,4,5,4,5,4,5,,,
{16}
3/6,,,2/4,,,
{8}
4/8,1w5[8:1],,1,,
{16}
5>1[16:3],,,1<6[16:3],,,5,,4-7[8:1],,,,3/4,,2,2,8-3[8:1],,,,7/8,,
6,6,4-8[8:1],,,,2/4,,3,,5>2[8:1],,,8,,,6,,
4h[8:1]/1h[8:1],,,3h[8:1]/6h[8:1],,,5/8,,2/4,,
{24}
3,4,3,
{16}
4,,2,,1h[8:1]/3h[8:1],,,6h[8:1]/8h[8:1],,,4h[8:3]/5h[8:3],,
{4}
,,3qq4[8:7],,,,5pp4[8:7],,,,3V15[8:7],,,,7-3[2:1],,,
{8}
2b,,
{16}
5h[16:3],,,1h[16:3],
{8}
,7,6-2[8:1],3,4,5,
{16}
8h[16:3],,,7h[16:3],,,5p3[8:3],,
{8}
6,,7,,1p4[1:1],,,,2,,,,3,,,,5,,
{16}
4,,3,4,
{8}
3-7[8:1],,,6,8[8:1],1-5[8:1],,2,
{16}
3h[16:3],,,5h[16:3],,,6,,8h[16:3],,,2h[16:3],,,3,,4/5-2[8:1],,,6,,,8,,1-5[8:1]/2,,,,,,,,4h[16:3],,,6h[16:3],,,8,,2-6[8:1]/5h[2:1],,,,,,,,8,,,,,,
5,4,7,,,,,,6,4,1v6[8:1],,,,,,,,
5h[8:1]/3h[8:1],,,7h[8:1]/4h[8:1],,,6/1,,2-5[8:1]/4,,,7,,,8,,6,,
{24}
4,5,3,4,2,4,3,,,
{16}
4b/6b,,,2b/5b,,,1b/7b,,
{8}
4bqq2[8:1]/8bqq6[8:1],,,,2-5[8:1],5V31[8:1],2,8-4[8:1],6,8,7,
{16}
6,4,
{8}
5-2[8:1],2V46[8:1],5,8-4[8:1],2,8,1<6[8:1],1,5-1[8:1],5,2>5[8:1],2,6-2[8:1],6,3>8[8:1],3,5pp2[8:3],5,,,,,3h[4:1],2,
{16}
8<5[16:3],,,5>2[16:3],,,2,,1-4[8:1]*-6[8:1],,,,1b,,,,4>1[16:3],,,1<6[16:3],,,6,,4w8[8:1],,,,4b,,,,
{8}
8/7,6,1/8,3,5/7,6,1/3,2,5<3[8:3]/4,,2,3,4w8[8:1],,4b,,7-3[8:1],3V58[8:1],7,1-5[8:1],3,1,2,
{16}
3,5,
{8}
4-8[8:1],8V63[8:1],4,2-6[8:1],8,2,7>2[8:1],7,5-1[8:1],5,3<6[8:1],3,1-5[8:1],1,7,6,3h[8:1]/4h[8:1],
{16}
,5h[8:1]/7h[8:1],,,1/3,,2/7,,7,5,6,4,5,3,1>4[16:3],,,4<7[16:3],,,8,,1>7[8:3],,,5,,,8,,1>4[16:3],,,4<7[16:3],,,8,,1h[4:1],,,,6,6,2,,
5h[16:3],,,8h[16:3],,,2,,4/7-3[8:1],,,,2>7[2:1]/7,,2h[8:5],,,,,,,,,,,,
{24}
,3,4,3,4,,,,,
{16}
2h[16:3],,,4h[16:3],,,7,,1-5[8:1]/5,,,,6<3[2:1]/1,,6h[8:5],,,,,,,,,,,,,,3,4,5,6,5-7[8:1]*-1[8:1],,,,,,,,8<4[8:1]*>4[8:1],,,,,,,,
{24}
2,3,4,5,6,7,2,3,4,5,6,7,
{32}
1,2,3,4,5,6,7,8,
{8}
1b,,
{16}
2v5[8:1]/6v1[8:1],,,,2/6,,,,4<8[16:3],,,8>3[16:3],,,4,,5v2[8:1],,,,6/5,,7,8,1v6[8:1],,,,2/1,,
3,4,5-1[8:1],,,,7/5,,6,,4<7[8:1],,,1,,,3,,
5h[8:1]/8h[8:1],,,6h[8:1]/3h[8:1],,,4/1,,7/5,,
{24}
6,5,6,5,6,5,6,5,,
{16}
8b<1[1:3]/4bv1[4:3],,,,,,,,
{1}
,,,,
