&title=Credits[?]
&artist=Frums
&first=0.06
&lv_5=?
&des=何の意味
&inote_5=
(179){4},,,,{8}1,
1,1,1,1,1,1,1,
1,1,1,{16}1,8,1,8,1,8,1,8,1,8,
{8}1,1,1,1,1,1,1,1,
1,1,1,{16}1,8,1,8,1,8,1,8,1,8,
{8}1,1,1,1,1,1,1,1,
1,1,1,{16}1,8,1,8,1,8,1,8,1,8,
{8}1,1,1,1,1,1,1,1,
1,1,1,{16}1,8,1,8,1,8,1,8,1,8,
{8}1/8h[8:1],1,1,1/8h[8:1],1,1,1/8h[8:1],1,
1/8h[8:1],1,1,{16}1,8,1,8,1,8,1,8,1,8,
{8}1/8h[8:1],1,1,1/8h[8:1],1,1,1/8h[8:1],1,
1/8h[8:1],1,1,{16}1,8,1,8,1,8,1,8,1,8,
{8}1/8h[8:1],1,1,1/8h[8:1],1,1,1/8h[8:1],1,
1/8h[8:1],1,1,{16}1,8,1,8,1,8,1,8,1,8,
{8}1/8h[8:1],1,1,1/8h[8:1],1,1,1/8h[8:1],1,
1/8h[8:1],1,1,{16}1,8,1,8,1,8,1,8,1,8,
{8}1/8h[8:1],1,1,1/8h[8:1],1,1,1/8h[8:1],1,
1/8h[8:1],1,1,{16}1,8,1,8,1,8,1,8,1,8,
{8}1/8h[8:1],1,1,1/8h[8:1],1,1,1/8h[8:1],1,
1/8h[8:1],1,1,{16}1,8,1,8,1,8,1,8,1,8,
{8}1/8h[8:1],1,1,1/8h[8:1],1,1,1/8h[8:1],1,
1/8h[8:1],1,1,{16}1,8,1,8,1,8,1,8,1,8,
{8}1/8h[8:1],1,1,1/8h[8:1],1,1,1/8h[8:1],1,
1/8h[8:1],1,1,{16}1,8,1,8,1,8,1,8,1,8,
{8}1,1,{16}1,8,{8}1,1,1,{16}1,8,{8}1,
1,1,{16}1,8,{8}1,8/1,8/1,8/1,8/1,
1,{16}1,8,1,8,{8}1,{16}1,8,1,8,{8}1,1,
1/8,1,1,{16}1,8,1,8,1,8,1,8,1,8,
{8}1,1,{16}1,8,{8}1,1,1,{16}1,8,{8}1,
{16}1,8,{8}1,1,{16}1,8,{8}1,1,{16}1,8,{8}1,
1,{16}1,8,{8}1,1,{16}1,8,{8}1,1,{16}1,8,
{8}1,1,{16}1,8,{8}1,1,{16}1,8,{8}1,1,
1/8,1,{16}1,8,{8}1,1,1,{16}1,8,{8}1,
1,1,{16}1,8,{8}1,1/8,1/8,1/8,1/8,
1,{16}1,8,1,8,{8}1,{16}1,8,1,8,{8}1,1,
1/8,1,1/8,{16}1,8,1,8,1,8,1,8,1,8,
{8}1,1,{16}1,8,{8}1,1,1,{16}1,8,{8}1,
1,{16}1,8,{8}1,1,{16}1,8,{8}1,1,{16}1,8,
{8}1,1,{16}1,8,{8}1,1,{16}1,8,{8}1,1,
{16}1,8,{8}1,1,{16}1,8,{8}1,1,1/8h[8:1],1,
1,{16}1,8,{8}1,1,1,{16}1,8,{8}1,1,
1,{16}1,8,{8}1,1,1,{16}1,8,1,8,{8}1,
1,{16}1,8,{8}1,1,1,{16}1,8,{8}1,1,
1,{16}1,8,{8}1,1,1,{16}1,8,1,8,{8}1,
1,{16}1,8,{8}1,1,1,{16}1,8,{8}1,1,
1,{16}1,8,{8}1,1,1,{16}1,8,{8}1,1,
1,{16}1,8,{8}1,1,1,{16}1,8,{8}1,1,
1,{16}1,8,1,8,1,8,1,8,1,8,{8}1,1,
1,{16}1,8,{8}1,1,1,{16}1,8,{8}1,1,
1,{16}1,8,{8}1,1,{16}1,8,1,8,1,8,1,8,
{8}1,{16}1,8,{8}1,1,1,{16}1,8,{8}1,1,
1,{16}1,8,{8}1,1,{16}1,8,1,8,1,8,1,8,
{8}1,{16}1,8,{8}1,1,1,{16}1,8,{8}1,1,
1,{16}1,8,{8}1,1,{16}1,8,1,8,1,8,1,8,
{8}1,{16}1,8,{8}1,1,1,{16}1,8,{8}1,1,
1,{16}1,8,{8}1,1,{16}1,8,1,8,1>8[4:7],8,1,8,
{8}1,1,1,1,1,1,1,1,
1,1,1,1,1,1,1,1,
1/8,1,1,1/8,1,1,1/8,1,
1/8,1,1,{16}1,8,1,8,1,8,1,8,1,8,
{8}1/8,1,1,1/8,1,1,1/8,1,
1/8,1,1,{16}1,8,1,8,1,8,1,8,1,8,
{8}1/8,1,1,1/8,1,1,1/8,1,
1/8,1,1,{16}1,8,1,8,1,8,1,8,1,8,
{8}1/8,1,1,1/8,1,1,1/8,1,
1/8,1,1,{16}1,8,1,8,1,8,1,8,1,8,
{8}1/8,1,1,1/8,1,1,1/8,1,
1/8,1,1,{16}1,8,1,8,1,8,1,8,1,8,
{8}1/8,1,1,1/8,1,1,1/8,1,
1/8,1,1,{16}1,8,1,8,1,8,1,8,1,8,
{8}1/8,1,1,1/8,1,1,1/8,1,
1/8,1,8/1<8[8:1],1,{2}1/8,
E
