&title=A Site De La Rue
&artist=KIEN (STEREME REVERIE)
&first=0.017
&des=42TR4L -INFINITY CIRCULATION-
&des_5=42TR4L -INFINITY CIRCULATION-
&lv_5=14
&inote_5=(186)
{1},
{8}3b/7b,,1h[4:1],,5,2,,2h[4:1],,6,3h[4:1],,7,4,,4h[8:1],
{8}8h[4:1],,1h[4:1],,5,2,,2h[4:1],7b-3[8:1],7,,1b-5[8:1],,1b<6[8:1],,
{24}5x/1b,4,3,
{8}2b,,8h[4:1],,4,7,,7h[4:1],,3,6h[4:1],,2,5,,5h[8:1],
{8}1h[4:1],,8h[4:1],,4,7,,7h[4:1],,3,6h[4:1],,2>8[4:1],5,,,
{16}Cf,,,,2-6[8:1]/6,,3,4,2-8[8:1],,7,,2,,E7/B6,,1h[8:1],,5,,2-6[8:1]/6,,3,4,2<8[8:1],,7,,2,,B5/E5,,
{16}1h[8:1],,5,,2-6[8:1]/6,,3,5,2-4[8:1],,4-8[8:1],,2,,6,,7h[8:1],,1,,2-6[8:1]/6,,3,5,2>4[8:1],,4-8[8:1],,2,,6,,
{16}5h[8:1],,2,,7-3[8:1]/3,,6,5,7-1[8:1],,2,,7,,E3/B3,,8h[8:1],,4,,7-3[8:1]/3,,6,5,7>1[8:1],,2,,7,,B4/E5,,
{8}7,7,1/8,1/8,1/2,2/3,3/4,4/5,
{16}6,5,6,5,7,4,7,4,
{32}7,6,5,4,3,2,1,8,7/3,4,5,6,7,8,1,2,
{8}3b/8b-4[8:1],,8/6-1[8:1],5,6-4[8:1],4-7[8:1],,2,
{8}1-5[8:1],,1/3-8[8:1],4,3-5[8:1],5-2[8:1],,7,
{8}8-4[8:1],,8/6-1[8:1],5,6-4[8:1],4-7[8:1],,2,
{8}1p5[8:1],,1/2,3,4q8[8:1],3,2,1,
{8}1-5[8:1],,1/3-8[8:1],4,3-5[8:1],5-2[8:1],,7,
{8}8-4[8:1],,8/6-1[8:1],5,6-4[8:1],4-7[8:1],,2,
{8}1-5[8:1],,1/3-8[8:1],4,3-5[8:1],5-2[8:1],,7,
{8}6<1[8:1],2x,3,4,5-1[8:1],8,7,6,
{8}5b-7[8:1],,3,4,5-1[8:1],1-3[8:1],8,7,
{8}6-1[8:1],,4,5,6-3[8:1],8-5[8:1],6,8,
{8}2>4[8:1],,8,1,2-7[8:1],4-8[8:1],2,4,
{8}5-1[8:1],2,3,4,5>2[8:1],8,7,6,
{8}1/5,1/5,2/6,2/6,3/7,3/7,4/8,4/8,1/5,1/5,4/8,4/8,3/7,3/7,2/6,2/6,1/8,1/8,1/2,2/3,3/4,4/5,5/6,6/7,
{16}8,1,8,1,8,1,8,1,
{32}A8,A7,A6,A5,A4,A3,A2,A1,E1,E8,E7,E6,E5,E4,E3,E2,
{8}E1f/A8/D1/A1/4bx-6[8:1],,4/3,2b-5[8:1],,2b/1b-4[8:1],,1b/8b,,7b,7b-5[8:1]/3b-1[8:1],,3b-5b[8:1]/7b-1b[8:1],,3b/7b,,
{8}6-4[8:1],2b,6-8[8:1],1b,1bw5[8:1],,1b,,
{16}1b,1b,1b,1b,1b<6[8:1]*>4[8:1],,2b/8b,,1bw5b[8:1],,,,1b,,,,
{8}3b/7b-4[8:1],,3/7,1b-4[8:1],,1b-6[8:1]/8b,,1b/2b-5[8:1],,2b/7b,8b-6[8:1]*-2[8:1],,8b-5b[8:1]*-3b[8:1],,8b,,
{8}7-1[8:1],2b,7-5>4[8:1],4b-8[8:1],3b,3b,2b,2b,
{16}1b,1b,1b,1b,1b,,2b/8b,,3b/7b,,,,4b,5b,4b,5b,
{8}4b,7b-1[8:1],1,7b-5[8:1],2,3/7b-1[8:1],,3h[8:1]/7b-5[8:1],,4/7b-1[8:1],3,7b-5[8:1],2,3/7b-1[8:1],,3/7b-5[8:1],
{8}4,7b-1[8:1],3,7b-5[8:1],2,3/7b-1[8:1],,7b-3[8:1]/4b-1[8:1],4b,4b,,5b>2[8:1],,7b,8b,8b,
{8}6b,2b-8[8:1],8,2b-4[8:1],7,6/2b-8[8:1],,6h[8:1]/2b-4[8:1],,5/2b-8[8:1],6,2b-4[8:1],7,6/2b-8[8:1],,2b/6,7b,7b-5[8:1],,7b/4b-8[8:1],3,2b,1b,1b,
{16}1b,8b,1b,8b,1b,8b,1b,8b,
{32}2b,3,4b,5,6b,7,8b,1,2bh[8:1]/Cf,,,,,,,,
{16}1/8,,7,,5/6>3[8:1],,7,8,6,,1-5[8:1],,2,,1/8,,
{16}7,,6,,5/3>8[8:1],,2,4,3,,6v1[8:1],,5,,4/6,,
{16}3,,2,,1<6[8:1]/8,,3,3,1,,2-6[8:1],,4,,2,,
{8}7,8,2-5[8:1]/6,5V38[4:1],2,7-3[8:1],6,7,
{16}1,,2,,3/6,,7,8,7-4[8:1],,2,,1/7,,8,,
{16}5,,6,,2/8,,2,1,3<6[8:1],,2,,3/8,,7,,
{16}6x,,5,,4/8,,7,3,7-4[8:1],,2,,1/7,,8,,
{8}8-2[8:1],5,6,7,8-4[8:1],3,2,1,
{16}8b-4[8:1]/6b,,7,,2/8,,3,3,5>2[8:1],,6,,5/7,,8,,
{16}1-5[8:1],,8,,1/7,,6,6,4<7[8:1],,3,,2/4,,1,,
{16}8v5[8:1],,1,,2/8,,3,3,6<1[8:1],,4,,6/3,,2,,
{8}3>8[8:1],4,5,6,7-5[8:1],2-4[8:1],7,2,
{8}8,8,1/7,1/7,2/6,2/6,3/5,3/5,4/6,7,3/5,2,4/6,8,3/5,1,
{16}2,8,2,8,3,7,3,7,4,6,4,6,5,5,5,5,4,6,4,6,3,7,3,7,
{32}2,3,4,5,6,7,8,1,2b/Cf,,,,,,,,
{8}7b-4[8:1],,7/3,1b-3[8:1],,1b-5[8:1]/5b-7[8:1],,1b/5b>7[4:1],,6b,5b-1[8:1],,5bw1b[8:1],,5b,,
{8}3/7,2b-5-1[4:1]/6b,,2b/6b,7b-4[8:1]*-3[8:1],,7b,,
{16}1b,1b,1b,1b,1b,,2b/8b,,3b-8[8:1]/7b-4[8:1],,,,3b/7b,,,,
{8}E1,5b,E2,6b,E3,7b,E4,8b,E5/D5,1b,E6/D6,2b,E7/D7,3b,E8/D8,4b,
{16}4b,5,4b,5,3,6,3b,6,1,8,2b,7,4b,5,3b,5,4b,4b,4b,4b,4b,4b,4b,4b,
{32}4bw8[8:1],3,2b,1,8b,7,6b,5,4b/Cf,,,,,,,,
{8}2>5[8:1],1,8,7>2[8:1],6,5,4<7[8:1],3,2-5[8:1],1,2/8-4[8:1],1,2/8-3[8:1],1,8/6,7,
{8}8<5[8:1],1,2,3>8[8:1],4,5,6>3[8:1],7,8-4[8:1],1,2V46[8:1]/8,1,2/7-3[8:1],8,1/7,2,
{8}1-6[8:1],2,3,4>1[8:1],5,6,7<6-4[8:1],8,1-5[8:1],2,1<6[8:1]/7,8,1>4[8:1]/3,2,1/5,6,
{8}7-2[8:1],6,5,4<7[8:1],3,2,1-3<4[8:1],8,
{8}7b,6b,
{16}5,6,7b,8,5/1,2,3b,4,1/5,2/6,3/7,4/8,
{8}5b>2[8:1]/1b,,5/1,8<5[8:1],1,2,3>8[8:1],4,5-1[8:1],6,5-2[8:1]/3,4,5-8[8:1]/7,6,5/3,4,
{8}4<7[8:1],3,2,1>4[8:1],8,7,6<1[8:1],5,4-8[8:1],3,4-7[8:1]/6,5,4-1[8:1]/2,3,4/6,5,
{8}4,4,1/2,1/2,7/8,7/8,5/6,5/6,2/5,3/4,8/4,5/7,4/6,2/8,3/4,1/7,
{16}2,7,1,8,2,7,4,5,3,6,1,8,2,1,3,8,4,6,1,5,3,8,2,7,
{32}3,4,5,6,7,8,1,2,3,4,5,6,7,8,1,2,
{8}3b/Cf,8bx-6[8:1],4,8b-2[8:1],5,4/8b-5[8:1],,4h[8:1]/8b-3[8:1],,8b<6[8:1]/3,4,8b>2[8:1],5,4/8b-4[8:1],,4/8b,
{8}3,1b-7[8:1],5,1b-3[8:1],4,5/1b,,5/1b,1b,1b-5[8:1]/7,6p3[8:3],1b,,1bx,1bx,1bx,
{8}2bxs6[2:5],8b,,8b,,8b,,8b,,8b,,8b,,8b,,8b,8b,8b,,8b,,8b,8b,8b,
{16}8b,8b,8b,8b,8b,8b,8b,8b,8b,8b,8b,8b,8bw4[8:1],8b,8b,8b,
{96}8b/B1/B2/B3/B4/B5/B6/B7/B8,Cf,
