&title=凛
&artist=a_hisa
&first=0.35
&des=布衣
&lv_5=13+
&des_5=布衣
&inote_5=
(170){8}7b/1b,6,3,7,8/2,3,6,5,
4/2,1,3,4,5/7,8,6,5,
4,4q2[4:1],,8,8,8q5[4:1],,3,
3,3>8[4:1],,5,5<1[4:1],5,{16}1,2,3,4,
{8}5,5q2[4:1],,8,8,8q7[4:1],,3,
3,3<6[4:1],,1,1<5[4:1],1,{16}5,4,3,2,
{8}1v3[8:1],1,5v8[8:1],5,2-6[8:1],2,7,8,
1/5,4,2/4,4,8/4>1[8:1],4,4/6,5,
6,3,3,3,7/3,7,7,7,
4/8-4[8:1],5,8/6-2[8:1],7,6/3-7[8:1],4,3,5,
5,5p7[4:1],,1,1,1p4[4:1],,6,
6,6<1[4:1],,4,4>8[4:1],4,{16}8,7,6,5,
{8}4,4p7[4:1],,1,1,1p2[4:1],,6,
6,6>3[4:1],,8,8>4[4:1],8,{16}4,5,6,7,
{8}8v6[8:1],8,4v1[8:1],4,7-3[8:1],7,2,1,
8/4,5,7/5,5,1/5<8[8:1],5,5/3,4,
1/6,6,6,6,2/6,2,2,2,
{16}2,8,3,7,4,6,3,5,2,6,1,7,2,8,3,7,
{32}4>6[2:3],5,{16}6,{1},{4},{8},3h[16:1],
3h[16:1],3h[16:1],3h[16:1],
{4}7/3,{8}6/2-5[8:1],5-1[8:1],{4}2,{8}8,7-3[8:1],
,7,1<6[8:1],5,{4}1/4-8[8:1],{8}4/3,2,
{4}1>5[4:1],5<1[4:1],1-5[8:1],5,
{8}4/6,3h[8:1],2h[8:1],1h[8:1],8h[4:1],{16}7-2[8:1],6,{8}5-2[8:1],7,
{4}5,{8}1-4[8:1],4-8[8:1],{4}1,{8}2,3v8[8:1],
,3,4,5,6-3[8:1],7,8-4[8:1],1,
{4}2qq6[8:5],2,3-5[8:1],3,
7h[4:1],8h[4:1],1h[4:1],{8}2,3,
{4}4,{8}3/7-4[8:1],4-8[8:1],{4}7,{8}1,2-6[8:1],
,2,8>3[8:1],4,{4}8/5-1[8:1],{8}5/6,7,
{4}8<4[4:1],4>8[4:1],8-4[8:1],4,
{8}5/3,6h[8:1],7h[8:1],8h[8:1],1h[4:1],{16}2-7[8:1],3,{8}4-7[8:1],2,
{4}4,{8}8-5[8:1],5-1[8:1],{4}8,{8}6,5v8[8:1],
,5,4,3,2-5[8:1],1,8,7,
{16}4,8,4,8,4,8,4,8,4,8,4,8,4,8,4,8,
{4}3h[4:1],{16}4h[16:3],,,5h[16:3],,,{8}6,7,8,
{4}1/2,{16}5-1[8:1],4,6,3,{4}5b,{16}4,8,3,7,
2,6,1,5,2,4,3,5,4b,6,3,7,2,8,1,7,
{4}2,{16}4-8[8:1],5,3,6,{4}4b,{16}5,1,6,2,
7,3,8,4,7,5,6,4,{4}5b-2[8:1]*-8[8:1],5,
{8}1-5[8:1],2-4[8:1],1,2,{16}8,7,6,5,1,2,3,4,
{8}8-4[8:1],7-5[8:1],8,7,{16}1,2,3,4,8,7,6,5,
{8}8-4[8:1],1-3[8:1],8,1,{16}8,7,6,5,1,2,3,4,
{8}1-5[8:1],8-6[8:1],1-3[8:1],8-4[8:1],1-5[8:1],8,{4}1,
{8}4b/3b,3h[4:1],{16}4,5,6,7,{8}8b/1b,8h[4:1],{16}1,2,3,4,
{8}6b/5b,5h[4:1],{16}6,7,8,1,{8}3b/2b,3h[4:1],{16}2,1,8,7,
{8}6b/5b,6h[4:1],{16}5,4,3,2,{8}1b/8b,1h[4:1],{16}8,7,6,5,
4/3,2,1,8,7,6,5,4,{8}3h[8:3],2,1,8,
{16}7/1-5[8:1],,,7-3[8:1],1,,,7,2>5[8:1],,,6<1[8:1],2,,,6,
3-7[8:1],,,5-1[8:1],3,,,5,2-4[8:1],,,6-8[8:1],2,,,6,
5-2[8:1],,,1-6[8:1],5,,,1,3>8[8:1],,,7,{8}3,6,
{4}5-3[8:1],5-7[8:1],5-1[8:1],5,
{16}2/8-4[8:1],,,2-6[8:1],8,,,2,7<4[8:1],,,3>8[8:1],7,,,3,
6-2[8:1],,,4-8[8:1],6,,,4,7-5[8:1],,,3,{8}7,2,
1,8h[8:1],7h[8:1],6h[8:1],5h[8:1],4h[8:1],3h[8:1],2h[8:1],
{16}1b,8,7,6,1b,2,3,4,8b,7,6,5,2b,3,4,5,
{1}7h[1:1],
{2}5h[1:1],1h[2:1],
{32},8b/4b,7/3,6/2,,,,,{8}7/3,{16}6,5,4-8[8:1],,,3,{8}4,2,
3-1[8:1],8V26[4:1],3-5[8:1],8,{4}3,{16}3/7>3[4:1],4,5,6,
{8}7b,{16},,,,6,7,8-4[8:1],,,1,{8}8,2,
5/3,{16}6,8,{8}7,{16}3,1,2,,,7,{8}6/2<6[4:1]*V86[4:1],4,
2b,{16},,,,3,4,5-1[8:1],,,6,{8}5,7,
8-4[8:1],3V52[4:1],8-6[8:1],3,{4}8,{16}5-1[8:1]/1-5[8:1],2/6,3/7,4/8,
{4}5/1,{16}4-8[8:1]/8-4[8:1],7/3,6/2,5/1,{4}4/8,{8}7-2[8:1]/3-6[8:1],2/6,
{4}7b/3b,{8}1<6[8:1]/5>2[8:1],4/8,{4}1b/5b,{16}3/7>3[4:1],4,5,6,
{8}7b,{16},,,,3,4,5-1[8:1],,,6,{8}5,7,
6<8[8:1],1p3[4:1],6>4[8:1],1,{4}6,{16}6/2p6[4:1],5,4,3,
{8}2b,{16},,,,3,2,1-5[8:1],,,8,{8}1,7,
4/6,{16}3,1,{8}2,{16}6,8,7,,,2,{8}3/7>3[4:1]*q3[4:1],5,
7b,{16},,,,6,5,4-8[8:1],,,3,{8}4,2,
1q5[8:1],6p7[4:1],1>3[8:1],6,{4}1,{16}8v6[8:1]/4v2[8:1],7/3,6/2,5/1,
{4}4/8,{16}1v3[8:1]/5v7[8:1],2/6,3/7,4/8,{4}5/1,{8}2/8,4/6,
{16}8b,7,6,5,8b,1,2,3,7b,6,5,4,1b,2,3,4,
{8}5/7,4,6,3,4/2,5,3,6,
7/1,2,8,3,2/8,7,1,6,
5/2,3,6,5,4/7,6,{12}3,,4,
,3/8,,4,,6,,5,{48},,,,{16}1/6,,,5,
,,{8}3,,4h[8:9],{1},{32}2b,
1b,8b,7b,
E
