&title=夏日残讯
&artist=昼夜自平衡 feat.本墨置子
&first=0.02
&des=Holinality
&clock_count=4
&lv_5=13
&inote_5=(160)
{1}
,
{4}
,B6,B5,B4,
{8}
B3,,,,,E6,E4,E7,
E3,,,,,6x,5x,4x,
3hx[4:1],,5hx[4:1],,4hx[4:1],,6hx[4:1],,
2pp5[4:2],,,,,,8,7,
6bhx[8:3]/4bx,,,3,,7,1,8,
2b>5[4:1]/8b,,2/7,,6h[4:1],,3,,
7bpp6[16:8]b/3hb[4:3],,,,,,,,
{16}
3bqq4[16:8]b/6b,,,,,,,,
,,,,1xpp4[16:8],8x,7x,6x,
{16}
5hx[2:1]/1x,,,,,,,,
,,,,6xpp1[16:8],,4h[16:8],,
6,,,,,,,,
,,3,,8>3[8:2],,3,,
3<6[8:2]/8,,,,,,2h[8:3],,
,,,,6,,3,,
5/4,,,6/8,,,1/3,,
,,6,,3qq8[4:2],,5,,
3/5h[4:2],,,,,,,,
,,,,6pp1[4:2],,3h[4:2],,
6,,,,,,,,
2,,2x/8x,,7,,1x/7x,,
7p6[8:3],,,,7/1h[4:1],,,,
,,,,1bx>3v5<6[16:12]b*<7v5<6[16:12]b,,,,
1b,,,,,,,,
,,,,,,,,
{16}
6x/4x,,,,4/E6,,,,
4/E7,,,,4/E8,,,,
3/5,,,,3/B5,,,,
3/B6,,,,3/B7,,,,
4h[2:1],,,,5,,,,
6,,,,4,,5/3,,
6,,,,6/E4,,,,
6/E3,,,,6/E2,,,,
5h[4:1],,,,3,,,,
5/3,,,,5,,6/4,,
3h[2:1],,,,5,,,,
6,,,,7,,1,,
8h[2:1]/2,,,,2,,,,
2h[4:1],,,,8,,8/1h[8:3],,
,,,,8p4[8:2],,,,
8b/2b,,,,,,,,
{16}
,,,,3h[4:1]/5,,,,
5h[4:1],,,,2h[4:1],,,,
7-2[8:1],,,,7/3-6[8:1],,,,
8-4[8:1]/3,,,,8/2qq7[2:1],,,,
2,,,,,,,,
,,,,5,,6/4,,
2-5[8:1],,,,2/7-2[8:1],,,,
7/4-1[8:1],,,,4/6<3[8:3],,,,
6,,,,,,,,
4h[8:3],,,,,,6,,
6>3[4:1],,,,3>8[4:1],,,,
8<5[4:1],,,,5-3-1[4:1],,,,
1-7-5[4:1],,,,,,,,
2h[8:3],,,,,,5h[8:3],,
,,,,1bxqq4[4:2]b*pp6[4:2]b,,,,
1b,,,,,,,,
,,,,,,,,
{16}
4>1[8:2],,,,,,7,,
7pp6[4:2],,,,,,,,
3pp2[4:2],,,,,,,,
,,,,,,,,
7>2[8:2],,,,,,4,,
4v2[4:1],,,,8<5[4:1],,,,
8,,,,1>4[4:1],,,,
5/1,,,,7,,6,,
5h[4:1]/3,,,,2,,3,,
4h[4:1]/6,,,,7qq5[8:2],,,,
3qq1[8:2]/7,,,,3,,,,
7bxpp5[4:3]b,,,,,,,,
,,,,,,,,
3bxpp1[4:3]b,,,,,,,,
,,,,,,,,
,,,,6<8[8:1]/2,,,,
2>4[8:1]/6,,,,2/7bxq1>6[4:3]b,,,,
{16}
7b,,,,,,,,
,,1,,2,,3,,
4h[8:5]/7pp6[4:2],,,,,,,,
,,,,3,,2,,
3b-8[8:1]/7b-4[8:1],,,,3b/7b,,,,
2bq6[8:1]/6bq2[8:1],,,,2b<5[8:3]b/6b>1[8:3]b,,,,
2bx/6bx,,,,,,,,
,,,,2,,3/5,,
7h[8:3],,,,,,4,,
,,3/5,,2,,4/6,,
7-5[8:1],,,,4-8[8:1]/7,,,,
1-3[8:1]/4,,,,1/5xqq5b[4:3]*pp5b[4:3],,,,
5b,,,,,,,,
,,,,,,,,
,,,,,,,,
7/4,,6,,5/2,,3,,
4>1[8:1]/6,,5,,4<7[8:1],,,,
4,,,,,,2/8,,
,,1/7,,2q3[8:3]/8,,,,
2/7,,,6,,,5,,
5bx-8[8:1]*-2[8:1],,,,5b,,,,
4bx-1[8:1]*-7[8:1],,,,4bw8[8:3]b,,,,
4bx,,,,,,,,
,,6,,3/5,,2,,
1-4[8:1]*-3[8:1]/7,,8,,1-6[8:1]*-7[8:1],,,,
1,,,,,,3/5,,
,,2>4[8:1]/6<8[8:1],,1/5,,2/6,,
,,,,1>6>1[4:4]b/7,,,,
1b/8,,,,,,,,
7,,,,,,,,
6bq8[4:2]b,,,,,,,,
,,,,,,,,
{16}
3,,3h[4:1],,5,,5h[4:1],,
1,,1-3[8:1],,,,1/7-5[8:1],,
,,7,,3,,4-8[8:1],,
2,,4,,1h[8:1],,7xqq6[8:3],,
,,,,,,,,
1,,2,,3,,4/6,,
,,,,6-4[8:1],,,,
3-7[8:1],,,,8-2[8:1],,,,
8,,4,,4>2[8:1],,,,
7<5[8:1]/4,,,,1/7,,,,
1,,2/7,,6,,3/5,,
,,1-4[8:1],,6-1[16:3],,1>8q1[2:2]b,,
6,,,,,,,,
,,,,,,,,
,,,,2x,,,,
3x,,,,4x,,,,
{16}
6hx[2:2]/4x,,,,,,,,
,,E5,,E4,,E3,,
E2,,,,,,,,
,,E8,,E7,,E6,,
E5/E3,,,,E2,,,,
E1/E7,,,,E6,,,,
Ch[2:1],,,,,,,,
,,,,E2,,E3,,
E4/E6,,,,,,Ch[8:3]/E7,,
,,E8,,E7,,E6,,
E5/E3,,,,E2,,,,
E1/E7,,,,E6,,,,
Ch[1:1],,,,,,,,
,,,,,,,,
,,,,,,,,
5,,4/6,,3,,2/4,,
5-7[8:1],,2,,5/2-4[8:1],,,,
2,,,,,,8<6[8:1]/4,,
,,8,,4>2[8:1],,,,
4,,,7,,,6,,
5<8[8:2]/2,,,,8>3[8:2],,,,
3<6[8:2],,,,6q8[4:2],,,,
2hx[8:3],,,,,,,,
,,3x,,3x,,5,,
6/4,,7,,2-7[8:1]*-5[8:1],,,,
2,,,,,,6x-1[8:1],,
,,2-5[8:1]/6,,3,,2,,
,,,,8q2>7[1:1]b,,,,
4bh[1:1]/8b,,,,,,,,
,,,,,,,,
,,,,8h[4:1],,,,
1,,,,2q3[4:4]/7p6[4:4],,,,
2b/7b,,,,,,,,
,,,,,,,,
,,,,3-6[8:1]/7,,,,
7-4[8:1]/3,,,,7/2bxp8<3[4:3]b,,,,
{16}
2b,,,,,,,,
,,8,,7,,6,,
5h[8:5]/2pp1[4:2],,,,,,,,
,,,,6,,7,,
7bx<4[8:1]/8bx>3[8:1],,,,7bx/8bx,,,,
1bx<6[8:1]/2bx>5[8:1],,,,1bx/2bx,,,,
4bx>1[16:3]/5bx<8[16:3],,,,,,,,
,,,,2,,3/5,,
7h[8:3],,,,,,4,,
,,3/5,,2,,4/6,,
7b-1[8:1],,,,2b-6[8:1]/7,,,,
5b-3[8:1]/2,,,,1qq6<1[4:4]b*pp4>1[4:4]b/5,,,,
1b,,,,,,,,
,,,,,,,,
,,,,,,,,
7/4,,6,,5/2,,3,,
4-1[8:1]*-2[8:1]/6,,5,,4-7[8:1]*-6[8:1],,,,
4,,,,,,2/8,,
,,3/7,,4/6q8[8:3],,,,
1/6,,,2,,,3,,
4bx-1[8:1]*-7[8:1],,,,4b,,,,
5bx-8[8:1]*-2[8:1],,,,5bw1[8:3]b,,,,
5bx,,,,,,,,
,,3,,6/4,,7,,
8-5[8:1]*-6[8:1]/2,,1,,8-3[8:1]*-2[8:1],,,,
8,,,,,,6/4,,
,,7-4[8:1]/3-8[8:1],,2/6,,7/3,,
,,,,8/2q3<2[4:6]b,,,,
2b/5bh[1:1],,,,,,,,
,,,,,,,,
,,,,,,,,
,,,,,,,,
{16}
6,,6h[4:1],,4,,4h[4:1],,
8,,8-6[8:1],,,,8/2-4[8:1],,
,,2,,6,,5-1[8:1],,
7,,5,,8h[8:1],,2xpp3[8:3],,
,,,,,,,,
8,,7,,6,,5/3,,
,,,,3-5[8:1],,,,
6-2[8:1],,,,1-7[8:1],,,,
1,,5,,5<7[8:1],,,,
2>4[8:1]/5,,,,8/2,,,,
8,,7/2,,3,,6/4,,
,,8-5[8:1],,3-8[16:3],,8<1p8[2:3]b,,
3,,,,,,,,
,,,,,,,,
,,,,,,,,
,,,,,,,,
1bx>3v5<6[16:48]b*<7v5<6[16:48]b/Cf,,,,,,,,
,,,,,,,,
,,,,,,,,
,,,,,,,,
,,,,,,,,
,,,,,,,,
,,,,,,,,
,,,,,,,,
