&title=Shadow Flower
&artist=ned
&first=0
&des=Brightless Shadow 于殘影下盛開的藍色花瓣,委爾于金色光芒之側; 四分之三的神跡,企盼於嶄新之道重生。
&lv_5=13+
&inote_5=(71)
{4},,,,{256}
1qq7[94.67#6:1]*qq7[94.67#6:1],1!pp3[94.67#4:1],,,,,,,,,,,,,,,{16},,,,,,,{256}
5q1[94.67#6:1]*q1[94.67#6:1],5!qq3[94.67#4:1],,,,,,,,,,,,,,,{16},,,,,,,{256}
4pp5[94.67#6:1]*pp5[94.67#6:1],4!qq3[94.67#4:1],,,,,,,
,,,,,,,,{16},,,,,,,{256}
8q5[94.67#6:1]*q5[94.67#6:1],8!qq6[94.67#4:1],,,,,,,
,,,,,,,,{16},,,,,,,
6^8[94.67#12:1],5,2^4[94.67#12:1],2,,1,,,
7^5[94.67#12:1],8,3^1[94.67#12:1],3,,4,,{32}3,4,{16}
3^1[94.67#12:1],4,7^5[94.67#12:1],7,,8V26[94.67#16:3],,,
7V14[94.67#16:3],,,,6V85[94.67#16:3],,,5,
{24}4,3,2,1,8,7,6,5,4,3,2,1,{16}
8bpp3[16:4],,,,,,,,
5,4,6,6h[8:1],,7p5[94.67#16:5],8,1,
2h[4:1],,,,,3,1,3,
6,5,7,7h[8:1],,8p3[94.67#16:3],1,2,
3V57[94.67#16:3],,,1b,,8,1,2,
3,5,4,4h[8:1],,2^4[94.67#32:3],1,8,
7h[8:1],,5,6,7,8qq6[94.67#32:3],1,2,
3qq1[94.67#32:3],,,8^5[94.67#32:3],,4,4,,
5,1,5,2h,5,3h,5,4,
7h[16:3],6,5,4h[8:1],,5-1[94.67#16:2],6,3,
2-5[94.67#16:2],,,,,6,8,6,
2h[16:3],3,4,5h[8:1],,1-5[94.67#16:2],2,7,
6-1[94.67#16:2],,,,,4-8[94.67#16:2],3,7,
6^1[94.67#16:2],,,,,2^5[94.67#16:2],2,,
6-8[94.67#16:2],,5,5-1[94.67#16:2],,4-2[94.67#16:2],4,,
8,7,6,5,4-8[94.67#24:1],3,2,1b,
,,,,{256}
1v2[94.67#32:3],2,8,7,,,,,,,,,,,,,{16},,17,
5,{32}6,6,{16}4,7,3,6qq4[94.67#32:3],4^7[94.67#32:3],7q8[94.67#16:3],
3h[16:3],,,,2^5[94.67#32:3],1,8,2,
6,{32}3,3,{16}5,4,6,2^7[94.67#32:3],3/7pp2[94.67#16:4],46,
5h[16:4],,,,,7,7,6/2^4[94.67#32:3],
5^7[94.67#32:3]/3,,2qq8[94.67#32:4],5,,2,,5q1[94.67#32:4]*qq3[94.67#32:4],
,,5,,,28,,4h[16:3]/6-3[94.67#32:3],
6,,6,,2-5[94.67#32:3]/5,3,4,2,
6,6,1,7,8v7[94.67#32:3],6,2,8,
1,{32}6,6,{16}2,4,1,7-5[94.67#32:3],5v8[94.67#32:3],8V64[94.67#16:3],
3,3,2,1,8v1[94.67#32:3],7,6,58,
5,{32}2,2,{16}6,5,7,2-4[94.67#32:3],4v1[94.67#32:3],1V35[94.67#16:3],
5,5,6,7,8,1,2,3,
8w4[94.67#32:3],,,,,7,6,5,
1w5[94.67#32:3],,,,,3,2,1,
4w8[94.67#32:3],,,,,6,7,8,
5-1[94.67#32:3],,7,5w1[94.67#32:3],,,,,
1,2,3,4,1h[16:3],2,3,4,
1,2,3,4,1h[16:3],2,3,4,
8,1,2,3,8h[16:3],1,2,3,
8,1^6[94.67#32:3],2,3,{32}4,,5,5,8,,4,4,{16}
1,2qq8[94.67#32:4],3,4,3,4qq2[94.67#32:4],5,6,
5,6qq4[94.67#32:4],7,8,7,8qq6[94.67#32:4],1,2,
1,2,3,4,{24}8,7,2,3s7[94.67#32:6],4,,{16},,,,1-6[94.67#32:3],{48}17,2,3,4,,,{32}1b,,
4b,,7,7,{16}5V38[94.67#32:6],5,8V24[94.67#32:5],6q1[94.67#32:7],6,6,
6,,2,2,8-3[94.67#32:3],{48}28,7,6,5,,,{32}8b,,
5b,,2,2,{16}4V61[94.67#32:6],4,1V75[94.67#32:5],3p8[94.67#32:7],3,3,
3,,7,7,8,1-4[94.67#32:3],68,8,
1/5-8[94.67#32:3],,2q5[94.67#32:8],5,,2,,8-3[94.67#32:3],
8,,8/1-5[94.67#32:3],1,,6q1[94.67#32:8],6,4^1[94.67#32:3],
4,,4,,37,,25,25,{32}1,2,3,4,1,8,7,6,1-5[94.67#32:3],2,3,5,6,7,1,,
8b,,3,3,{16}7-5[94.67#32:2],4-2[94.67#32:2],8-4[94.67#32:2],7,4,8,
1,3,5,7,1^6[94.67#32:3],{48}82,3,4,5,,,{32}1b,,
3b,,5,5,{16}2-4[94.67#32:2],5-7[94.67#32:2],1-5[94.67#32:2],2,5,1,
8b,6,4,2b,8,4,5,1,
2pp4[94.67#32:3]/7qq5[94.67#32:3],,18,,,36,5,4,
3qq1[94.67#32:3]/6pp8[94.67#32:3],,27,,,26,37,48,
1qq7[94.67#32:3]/5qq3[94.67#32:3],,48,,,48,37,2/6^8[94.67#32:3],
5/1pp3[94.67#32:3],,6^4[94.67#32:3],1qq7[94.67#32:3],,6,1,,{1}
2q2[71#4:2]/6q6[71#4:2],,
,,,,,,,,,
,,,,,,,,,
,,,,,,,,,
,,,,,,,,,
