&title=ギミー!レボリューション
&artist=内田真礼
&first=0.3
&des=Tail_R
&lv_5=12+
&inote_5=(180.001)
{1},{2},
(180){8}1bxv8<5[2:1]b/8bxv1>4[2:1]b,,,,,,,6hx[2:1]/4x,
,1,2,3,,2/5,2/5,6<1[8:1],,
5,4,3>8[8:1],,4,5,6<1[8:1],,
5,4,3b>7[8:5]b,,,5x,,5x,
,5hx[8:1],,{16}5x,6x,7x,8x,1x,2x,3x,4x,
{8}1x-5[8:1]/5x,,6,,8-4[8:1]/4,4,,2-5[8:1],
,7,7,6-1[8:1],,,2q5[2:1],2,
,1,8,7,6,6xv3[8:1]b*q2[8:1]b,7,6b,
,E2,E4,B8,B5,,3-8[8:1]/4,,
{8}3,,2/6,1,2,3,4,5h[4:1],
,8-4[8:1],5,8,,2x/6x,3,4,
4>8[4:1],8,7,6,,5-8[8:1]*-2[8:1],
,5,,3x/7x,,1,8,2,6,3,
{8}4/5,,2/6,8,7,6,5,4h[4:1],
,8-4[8:1],,8,,2x/6x,3/7,,
2>5[8:1],8,7,6<1[8:1],,5,4,3-7[8:1],
,1-5b[8:1]/3,,1/8,,6x,6x,6x,
{8}4x/5x,,7/3,8,7,6,5,4h[4:1],
,1-5[8:1],4,1,,7x/3x,6,5,
5<1[4:1],1,2,3,,4w8[8:1],
,4,,6x/2x,,8,1,7,3,6,
{8}4/5,,2/6,8,7,6,5,4h[4:1],
,8-4[8:1],,8,,2x/6x,3/7,,
2>5[8:1],8,7,6<1[8:1],,5,4,3>8[8:1],
,7,6,5v7[4:1]*v3[4:1],,,,,
{8}4xv7-5[2:1],4xv1-3[8:3],,,,,,8x-5-8[2:1]/2x-5-2[2:1],
,8x/2x,,,,,,3bxV15b[2:1]/6xbV84b[2:1],
,3bx/6bx,,,,,,2h[8:3]/8,
,8,8,4h[8:3]/5h[8:3],,,,,
{4}7-2[8:1],7,3-8[8:1]*-8[8:1]*-8[8:1]/4-7[8:1]*-7[8:1],3/4,
{8}2-4[8:1]*-5b[8:1],,2,,6-1[8:1]/4,3,3,,
{4}2/1,3/4,5/6,7/8,
{8}1/8,1/8,2/3,2/3,4/5,4/5,6/7,6/7,
{16}2,8,2,8,2,7,2,7,{32}2x,3x,4x,5x,6x,7x,8x,1x,2x,3x,4x,5x,6xhb[8:3],,,,
{8},7,7,,8b-4[8:1],,2b-6b[8:1]/8,,
{32}2bx,B2,Cf,B6,{8},,2-5b[8:1]/1-5b[8:1],3/8,2/1,,7h[4:1],
,2-6-4b[4:1],8,2,,7,7,6V84b[4:1],
,1,2,3V15b[4:1],,8,7,6-4b[8:1],
,8/6v3b[8:1]*q2b[8:1],,6,,,A8/B8/Cf/B4/A4,,
{8}3hb[4:1]/8hb[4:1],,,2-5[8:1],3,1-5[8:1],8,2h[4:1],
,6V48[4:1],2,2,,3-8[8:1]*-8[8:1],,3/5V74[4:1]*V74[4:1],
,1,2,3V14[4:1]*V14[4:1],,7,6,5h[4:1],
,2,2b/E6f/B6/B5,,7b/E3f/B2/B3,,A1/B1/Cf/B5/A5,,
{8}6bh[4:1]/8hb[4:1],,,7-4[8:1]/8-4[8:1],6/1,7/8,,2h[4:1],
,7-3-5[4:1],1,7,,2,2,3^1-5[4:1],
,8,7,6^8-4b[4:1],,1,2,3^1-5b[4:1],
,8-4b[8:1],7,8,,2-5-1[4:1],4,2,
{8},,7,6^8-5[4:1]/1,,2,3,4^2-5[4:1],
,8,7,6^8-5[4:1],,3,2,1-5b[8:1],
,1h[8:3],,,{16}E1,E8,E7,E6,E2,E3,E4,E5,
{8}8bxV62^1V37[8:5],,,,,5x,5x,,
{8}5h[2:3],,C,,E6,E1,E4,E5,
{8}E7,C,E3,E1,{32}A8,D8,A7,D7,{8}A6,2,3V52[4:1],
,8,7,6V47[4:1],,1,2,3hb[4:1],
,,7b,,8bz4[8:1]*-5[8:1],,8b,,
{8}1xq5[8:1]/8x,,6,,8p4[8:1]/4,4,,2v5[8:1],
,7,7,6v1[8:1],,,2qq5[2:1]*qq5[2:1],2,
,,6,6qq1[2:1],,,2,2qq5b[2:1],
,,6,{384}6-1b[8:1],6?-1[384:47],6?-1[384:46]*-1[384:46],,,,,,,,,,,,,,,,,,,,,,,,,,,,,,,,,,,,,,,,,,,,,,{8},6,,2bh[8:3]/8bh[2:1],
{8},,{32}3x,4x,5x,6x,{8},3/4,1,5/6,8,
{16}4/5,,2,1,3,,7-4[8:1]/2,,,,1/7,,1,,2h[4:1],,
{8},6,6-1[8:1],,4,3,2,1b-5[8:1]*-5[8:1],
{8},6,7,8b-4[8:1]*b-4[8:1],,1,2,3bV14[4:1],
,7,6,5bV74[4:1],,1,2,3bV15b[4:1],
,8,7,6bV84b[4:1],,1b-5b[8:1],2,{32}1b,B1,Cf,B5,
E
