&title=三国杀背景音乐
&artist=小田叔
&first=-0.67
&des=チアマキ
&lv_5=13+
&inote_5=(130)
{1},
(65)
{16},,,,{48}E6,E5,E4,E3,,,{16},,{48}B7,D7/D8,,{16},,,,,,,
{16}3,4>1[8:1],5,6,,C,,,4>1[8:1],5,6,7,,,,,
{4}6>3[16:1]/1,1<6[16:1]/6,{16}4p3>1[16:3]/1,,{48}A8,D8,A7,D7,A6,D6,{4},
{16}3x<6[16:1]/7x,,,,8>3[16:1]/3,,,,5<8[16:1]/8,,,1,2-4-6-8-2>8[8:3],3,4,,
{16}2/5h[16:8],,,,,,,,3qq8[16:3],,,8,3,7,6,5h[32:1],
{16}2bq7[8:1]/6b,34,56,78,1>6[16:2]/2,,,,16,7,8-5[16:1],1,2pp1[16:3]/4,35,48,,
{16}6<5[16:3]/2,,,,1qq6[16:3]/6,,,,4qq1[16:3]*q7[16:3]/1,,,,4x,,,,
{16}3h[16:1]/5-1[16:1],6,4,7,5<8[16:1],6h[16:2],,1,5qq7[16:3],2,4,3,5x,,,,
{16}7h[16:1]/1-5[16:1],2,8,3,1>4[16:1],2,7,5,1qq3[16:3],6,8,7,1x,,,,
{16}Cf,,,,3,,4,,5/D7,,,,6,,5<8[4:1],,
{16}4/A2/B2/E3,,,,,,2,,3xq6[16:3]/4h[16:3],,,,,,,,
{16}1<2[16:3]/8h[4:2],,,,,,,,1h[8:1],,4h[16:5],,{32}8V64[16:3],,,1,,,2,,
{16}5p3[16:3],,,,,,,,1p7[16:3],,,,,,,,
{16}6,5,4,{32}3<6[16:3],4,{16}2,,1,1,,2,,,3q7[8:1]/4,,1,8,
{16},2,,,3q8[8:1]/4,,8,1,,2,,,Ch[8:1],,,,
{16}3,4,5-1[16:1],{32}6,4,{16}8-4[16:1],,5v2[16:1]/6,,8v3[16:1]/7,,56,,78,,46,,
{16}4h[4:1]/5<1[8:1],,6,6,5>1[8:1],,4,4,5/8<5[16:1],,7,{32}7,1,{16}8-4[16:1],1,6,3,
{16}1/8,2h[16:1],5h[16:1],{32}3,4,{16}1-6[16:1],7h[16:1],3h[16:1],5h[16:1],1-4[16:1],4h[16:1],2h[16:1],5h[16:1],1-6[16:1],,4h[16:1]/2,3h[16:1],
{16}1-5[16:1],4h[16:1],8h[16:1],2h[16:1],1>4[16:1],,7/3h[16:1],5h[16:1],1,6,7<3[16:1]*p3[16:1],8,{24}A2/B2,A1/B1,A8/B8,,,,
{16}62,5,4-7[16:1]/3,{32}3,5,{16}1-6[16:1],,4-8[16:1]/3,,1-5[16:1]/2,,43,,21,,53,,
{16}5h[4:1]/4>8[8:1],,3,3,4<8[8:1],,5,5,4w8b[8:1],,2,6,4,,,,
{16}2b/4b,4b/5b,,2b/4b,4b/5b,,2b/4b,4bq6[16:3]/5b,,C,,,,,,,
{16}7b/5b,5b/4b,,7b/5b,5b/4b,,7b/5b,5bp3[16:3]/4b,,C,,,,,,{32}2,4,
{16}1-4[16:1],2,4-2[16:1]/5,7-4[16:1],1/4-8[16:1],,4,7,2-5[16:1],3,4-8[16:1],6,27,8,47,6,
{16}8-5[16:1]/1,7,5-1[16:1]/4,2-5[16:1],8/5-7[16:1],,5,2,8-4[16:1],1,2-6[16:1],3,78,5,21,8,
{16}1p4[16:1]/5<8[16:1],3,4,2,1>4[16:1]/5,,7,68,8<1[16:3]/1p8[16:3],5,3,4,18,,,,
{16}5<8[16:1]/1>4[16:1],2,6,3,5p1[16:1]/1,,7,6,5pp2[16:2]/8<2[16:2],7,3,1,5x/8x,,,{32}7,8,
{16}6-1[16:1],1-5[16:1],4-1[16:1]/6,1-3[16:1],1-6[16:1]/6,,4,7-4[16:1],,4-7[16:1],3-8[16:1],7,2,4,3,5,
{16}3-8[16:1],8-4[16:1],5-8[16:1]/3,8-6[16:1],8-3[16:1]/3,,5,2-5[16:1],,5-2[16:1],6-1[16:1],2,7,5,6,4,
{16}6-8[16:1]/3,8-5[16:1],2-8[16:1]/6,8-3[16:1],8-4[16:1]/6,,2,6-8[16:1],,1-5[16:1],2-6[16:1],3/6,4,1,2,8,
{16}3-1[16:1]/5,1-4[16:1],7-1[16:1]/3,1-6[16:1],1-5[16:1]/3,,7,2>7[8:1],,8,,27,8,,35,,
{16}2b/4b,6b/5b,,1b/7b,2b/3b,,5b/7bpp4[16:3],1b/2b,,C,,,,,E2,E3,
{16}E4,E5,,C,E4,,E8,E7,E6,E5,,,E7/E8,,E3,E4,
{16}E5,E6,,,,,5<8[8:1]/6h[16:3],,,,E2,E3,E4,E5,6>3[8:1],E1,
{16}E8,E7,,C,E2,,E1,E8,E7,E6,,,C,,4q5[4:2],3,
{16}2,1,,,,,,,,,,,,,,,
,,,,,,,,,,,,,,,,
,,,,,,,,,,,,,,,,
,,,,,,,,,,,,,,,,
