&title=I was arrested for making complextro.
&artist=ariiol / CITY SOUNDS 城市聲音
&first=0.475
&des=Pototato
&lv_5=13+
&des_5=Pototato
&inote_5=
(128){4}6/3,{8},4,{12}3,3,4,5,{24},{8}5pp2[8:3],
,,,4,3,{16}4,3,{8}4,{16}5,4,
5,,,,,5,{8}5,{16}4,3,,5,{8}4,4qq7[8:3],
,,,5,4,{16}3,4,{8}3,5,
6,,,5,3,4,6,8p4[8:1]*q4[8:1],
,,,1,1,{16}8,1qq6[16:5]*pp4[16:5],,8,,1,
,,,,,,{8}6,{16}5,,,4,{4}5pp1[8:3],
{8},,,4,3,{16}3>8[8:1],6,,6,{8}3,
6b-1[12:1],4,6x/3x,{16}3,4,3,4,{8}3,4x/6x,{16}6,6,
{8}5-2[12:1],6,7x/5x,{16}6,5,6,5,{8}6,5x/3x,{16}2,2,
{8}8-4[12:1],1,1x/8x,{16}2,1,2,1,{8}2,1x/3x-8[12:1],4,
3/5-1[12:1],6,5x/4x-8[12:1],3,5/4,{16}6,6,{8}5x,3,
3b-8[12:1],5,3x/6x,{16}6,5,6,5,{8}6,5x/3x,{16}3,3,
{8}4-7[12:1],3,2x/4x,{16}3,4,3,4,{8}3,4x/6x,{16}7,7,
{8}1-5[12:1],8,8x/1x,{16}7,8,7,8,{8}7,8x/6x-1[12:1],5,
6/4-8[12:1],3,4x/5x-1[12:1],6,5,{16}2,2,{8}1-5[12:1],8,
{4}1b/8-3[12:1],7x/8x,{16}4,5,,3,{8}4x,{16}1,2,
{8}1b-5[12:1],2b-6[12:1],1bx>6[8:1],2b,{4}1b,7/8-4[12:1],
8b/1-6[12:1],2x/1x,{16}4,5,,5,{8}6x,{16}8,7,
{8}8b-4[12:1],7b-3[12:1],8bx-5[12:1],7b,{4}8bw4[8:1],8bx,
8/1-5[12:1],1x/2x,{16}1,2,,2,{8}1x,{16}1,8,
{8}1b-5[12:1],8b-4[12:1],1bx<4[8:1],8b,{4}1b,5x/3x,
{8}4/5-1[12:1],3,5x/2x-6[12:1],8,2/7-3[12:1],{16}5,5,{8}7x,4,
3/4-8[12:1],5,4x/6x-1[12:1],7,6/5,{16}5,5,{8}8x-4[12:1],1,
{4}8b/1-6[12:1],2x/1x,{16}5,4,,6,{8}5x,{16}8,7,
{8}8b-4[12:1],7b-3[12:1],8bx<3[8:1],7b,{4}8b,2/1-5[12:1],
1b/8-3[12:1],7x/8x,{16}5,4,,4,{8}3x,{16}1,2,
{8}1b-5[12:1],2b-6[12:1],1bx-4[12:1],2b,{4}1bw5[8:1],1bx,
1/8-4[12:1],8x/7x,{16}8,7,,7,{8}8x,{16}8,1,
{8}8b-4[12:1],1b-5[12:1],8bx>5[8:1],1b,{4}8b,4x/6x,
{8}5/4-8[12:1],6,4x/7x-3[12:1],1,7/2-6[12:1],{16}4,4,{8}2x,5,
8/1-5[12:1],2,1x/7-4[12:1],8b-4[12:1],7b<4[12:1],8b-3[12:1],7bxqq6qq5qq4qq3qq2qq1qq8qq7[4:15],8b,
{1}7b,
{4},,,,,,,,,,,,,B7,
,B8,
,B1,,B2,
,B3,,B4,
,B5,,B6,
6h[8:1]/5h[8:1],6h[8:1]/4h[8:1],{16}5/3,,,2/4,,,{8}3/1,
{16}1h[16:5],,,8,,7,,,{4}8h[8:1]/7h[8:1],7h[8:1]/6h[8:1],
3h[8:1]/4h[8:1],3h[8:1]/5h[8:1],{16}4/6,,,7/5,,,{8}6/8,
{16}8h[16:5],,,1,,2,,,{4}1h[8:1]/2h[8:1],{16}2,4,2,4,
{4}3h[8:1]/5h[8:1],4h[8:1]/6h[8:1],{16}5/6,,,7/6,,,{8}8/7,
{16}1h[16:5],,,8,,7,,,{4}7h[8:1]/6h[8:1],6h[8:1]/5h[8:1],
6h[8:1]/4h[8:1],5h[8:1]/3h[8:1],{16}4/3,,,2/3,,,{8}1/2,
{16}8h[16:5],,,1,,2,,,{4}2h[8:1]/4h[8:1],3h[8:1]/5h[8:1],
{8}6x/4x,{16}1,5,{8}4,{16}6,5,B1/B2/E2,4,6,5,5,6,4,5,
{8}3x/5x,{16}8,4,{8}5,{16}3,4,B8/B7/E8,5,3,4,4,3,5,4,
{8}4x/6x,{16}1,4,{8}3,{16}3,4,B8/E8/B7,4,2,2,5,5,4,4,
{12}7xh[12:1],5h[12:1],4h[12:1],3h[12:1],4h[12:1],2h[12:1],3h[12:1],1h[12:1],8h[12:1],2h[12:1],6h[12:1],5,
{8}5x/6x,{16}3,3,{8}4x,{16}5,4,B8/E1/B1,4,5,5,3x,4,4,3,
{8}3x/5x,{16}6,6,{8}5x,{16}4,5,B1/E1/B8,5,4,4,6x,5,5,6,
2bx,5,4,2bx,4,5,2bx,3,2bx,5,4,2bx,4,5,2bx,3,
{4}2b,5b,{2}5b-7-4-8[4:1],
{4}1-7[12:1],6x/1x-3[12:1],{16}4/1-5[12:1],,,4,{8}1x,{16}6,5,
5h[16:1]/7-3[12:1],,,5h[16:1],{8}7x-1[12:1],5,{4}4h[8:1]/7-5-2-8[4:1],7x/3xh[8:1],
{8}3h[8:1],E8/D8,4/5h[8:1],A8/B8,6/5h[8:1],E2/D2,4/6h[8:1],B1/A1,
{16}6/5h[8:1],,,5,{8}6,6/8,{4}6-3[12:1]/8>3[12:1],8-4[12:1],
2/8-6[12:1],3x/8-2[12:1],{16}5/8-4[12:1],,,5,{8}8x,{16}3,4,
4h[16:1]/2-6[12:1],,,4h[16:1],{8}2x-8[12:1],4,{4}5h[8:1]/2-4-7-1[4:1],2x/6xh[8:1],
{8}6h[8:1],E2/D2,5/4h[8:1],A1/B1,3/4h[8:1],E8/D8,5/3h[8:1],A8/B8,
{16}4/5h[8:1],,,5,{8}4,4qq1[4:1]/5pp8[4:1],{2}5/4,
{4}2-6[12:1]/6-8[12:1],6x/2x-8[12:1],{8}5/2-4[12:1],{16}6,6,{8}2x-8[12:1],7,
{16}2/7-3[12:1],,,4,{8}7x-1[12:1],5h[8:1],{4}7-4[12:1],{8}3/7x,2,
4/6h[8:1],1b,5/4h[8:1],1b,3/4h[8:1],8b,5/3h[8:1],8b,
{16}3/5h[8:1],,,5,{8}3,3,{4}1<6[12:1]/3-6[12:1],3bx/1bx,
3-1[12:1]/7-3[12:1],3x/7x-1[12:1],{8}4/7-5[12:1],{16}3,3,{8}7x-1[12:1],2,
{16}7/2-6[12:1],,,5,{8}2x-8[12:1],4h[8:1],{4}2-5[12:1],{8}6x/2x,7,
5/3h[8:1],8b,4/5h[8:1],8b,6/5h[8:1],1b,4/6h[8:1],1b,
{16}5/4h[8:1],,,4,{8}6,6,{2}4qq5[16:3]/6pp5[16:3],
E
