&title=Undying Macula
&artist=Ashrount
&first=0.05000001
&lv_5=14
&des_5=Popcorn
&inote_5=
(189){4},,,5/4bh[8:3],
,,{2}3,
{8}4,4,{4}3>8b[4:1],{8},7,,,{4}B6/B5,
B3/B2,C,6<1b[2:1],
,,{2}3,
{8}4,4,{4}5/3h[8:3],,,7/6,
2/3,8,{24}1bx/7bx,6x/2x,3x/5x,4x,,,,,,,,,{4}5x/7x-1[8:1],
{8}4,3h[4:1],,,4>1[8:1],
5,{4}6,{8}7,3x/8,2,8,
{4}1bx>4[8:1]*-4[8:1],1b<6[8:1]*-6[8:1],1bx,Cfh[4:3],
,,{2}6b,
{8}8-3[8:1],3x>8[8:1],{32}8b<6b[8:1],B4f,,,,,,,,,,,{8}2x,5x/1x,7,
4/8bh[8:1],2,5/1bh[8:1],7,{4}8bw4b[8:1],8b-6-4-2-8b[8:17]*>4<7>8[8:17],
{1},,{4},,{8}4xh[16:1],
4xh[16:1],{16}3bx,5x,3x,5,
2,4,2,4,1,5,1,5,{4}2xh[8:1],7xh[8:1]/3bxh[8:1],
2xh[8:1]/6bxh[8:1],7q5[1:1]`3q1b[1:1],{1},{4},{16}6bx,
4x,6x,4,
7,5,7,5,8,4,8,4,{4}7xh[8:1],6xh[8:1]/2bxh[8:1],
3xh[8:1]/7bxh[8:1],2pp5[1:1]`6pp1b[1:1],{1},{4},{16}4b,
8,4,8,
3,7,3,7,{8}2-6[8:1],6-3b[8:1]*-1b[8:1],{2}2b,
{16},,,,5b,1,5,1,6,2,6,2,{8}7-3[8:1],3-7b[8:1],
{4}7b,{8},,,,8b-5b[8:1],4,
8,1-4b[8:1],8,1,6bxh[8:1],3bxh[8:1],{16}5,4,5,4,
{24}5x,6,7,1x,2,3,{4}4bxh[4:3]/Cfh[16:17],{1},{4},{16}8bx,
1x,7x,2,
6,3,5,4,5,4,6,3,6,3,,,{8}8/7,6,
5/4,{16}2,1,{8}3-5[8:1],6-8[8:1],3,6,2x-4[8:1],1x,
2qq6b[4:1],8,{4}2b,{8},,8,1,
7x-5[8:1],1,7pp3b[4:1],2,{2}7b,
{16}6,5,{8}7-3[8:1],5-1[8:1],7,5,4-8[8:1],2x,4-6-2b[4:1],
{4}3,7h[4:1],,4bxh[4:3]/7xq6[4:1],
{16},,,,,,,,5b,4,6,4,7,4,8,4,
1,5,1,5,{8}5x-1[8:1],7x,5-3-7b[4:1],6,{4}2bxh[4:1],
{8},,7x/5x,4/6x,3/5x,2/4x,{48}1bx,E1,B1,B2,E3,,,,,4bx,E5,B5,
B6,E7,,,,,2bx,E3,B3,B4,{24}E5,{4}8xh[4:1],{32},7x/1x,6x/2x,5x/3x,{8}4bx-8b[8:1],,,,,4x/2x,
3,4,5x/7x,6,5,
{16}3,4,{8}2,1/5,{16}7,8,{8}6,1/5,{24}3,4,3,4,,,{8}8b/2b,
{16}7x,6,5,8x,7-1-5b[4:1],6,{8}5,3/7,,,4,
3,2,1,{4}8x/7-3[8:1],{8}8,1,
2,3,{4}4x/5x-1[8:1],{8}6,7,2-8[8:1],3,
5,6xh[4:1],{4}5<8b[8:1],{8}4,3,2,1/7,
6-2[8:1],5,4b,3>1[8:1],4x,5x,5,6,
7bx/1bxh[4:1],{24}8,2,3,{8}4,5bxh[4:1],{24}3b,4,6,7,8,1,{4}2bxh[4:1],
{8},3b,{4}4/2bh[4:1],{16}5b<7b[8:1],5x,{8}3,{4}5b-1[8:1],
{8}5,3,{16}2bx>4b[8:1],2,{8}8,{4}2b-6[8:1],{8}2,1,
{16}8bx<6b[8:1],8,{8}3,{4}8b-4[8:1],8/2,1-6-3-8b[1:1],
{8},,,,,,,,,,B7,
B5,B3,B1,,E8,
E6,E4,{4}E2,7bh[48:1]/2xh[48:1],{8}6b-2[8:1],3,
6,1,8-4b[8:1],{16}4,4,{8}8>3[8:1],6,{4}8x,
{16}6,7,{8}8,8x,{16}8/1,2,3,5,6,7,1,2,3,4b,
{8}8x-4[8:1],8x,{4}8b>1-3b[8:1]*-2b[8:1],8b<7-5b[8:1]*-6b[8:1],8b,
{8},1,{16}2,4,2,4,{8}6x<1b[8:1],{16}3,3,{8}6-4[8:1],2,
6x,2,{32}8/2bx,3,{16}4,{32},,8/2bx,3,{8}4,{32}2bx/8h[2:1],3,{16}4,{32},,,,,,,,5,
4,3,2,{8}1h[4:1],{24}8x,7,6,5,{12}4xh[24:5],{24},,,,,,{8}3b-7[8:1],6,
3,8,1-5b[8:1],{16}5,5,{8}1x<6[8:1],3,{4}1,
{16}4<7[8:1],,,1,{8}4-2b[8:1],2,8/4,7,{4}6h[8:1],
{8}8h[8:1],1h[8:1],3h[8:1],4h[8:1],5h[8:1],7h[8:1],{4}2h[8:1],
{8}8x-4[8:1],7x,1-5[8:1],2,{16}6x,7x,8x,1x,{4}2x<7[16:3],
4>5b[2:1],5b,{32},,,,,,,,,,,,,,,,1b/5h[2:3],
2x,3x,4x,6,7,8,1,{24}2,3,4,6,7,8,1,2,3,4,6,7,{16}8,1,2,3,
{12}4,6,7,8,{24},{8}1,{2}2bh,
{4},Ch[4:3],,,{2}B6/B7/E7,
{8}4,4,{4}3/6h[8:3],
{8},A2/E2,,,{4}E7/E6/A6,{8}B2/B3/E3,1x-5-1b[16:3],
,,{4}7bxh[2:1],{8},,B3,B2,
{2}8xh[4:1]/E2,{8}7x/4x,3x,{4}2x/6h[8:3],
,,7/1,8bw4b[8:1],
A8f,2xh[4:1],4,{8}3/5x<8b[8:1],3,
{4}5/2,1h[8:3],{8}5,6,{4}2/7-5[8:1],
{8}7,1-3[8:1],,1,{4}8h[4:1],4h[4:1],
,Cfh[4:3],,,{2}6b,
{16}2,5x,4,6x,{4}8bx/3b-5-2[8:1],
6,8-5-7[8:1],8b,{32}1b/4x,2,{16}3,{32},,,,8b/4x,
7,6,5,,,,,{4}8xh[4:1]/3-1-5[1:1],,,7h[4:1],
,,8h[8:1]/5xp1<8p4[1:1],
{8},7h[8:1],,,6h[8:1],,,5xh[8:1],
,,{4}6h[16:1]/3x>8q4b[1:1],6h[16:1],7h[16:1],
7h[16:1],8xh[16:1],8xh[16:1],{16}7h[16:1]/5x>8v3[1:1],,,7h[16:1],
,,{8}6h[16:1],{16},6h[16:1],,,5h[16:1],,,5h[16:1],,,{8}6xh[16:1],
{16},6xh[16:1],,,{8}3x/6x,5,4,5,4,5,
{32}3x/6x,,,5,,,{16}4,{32},3,,,2,,,1,,,{16}8,{32},7,{96},,,,,,{12}3x/6x,{48}4x,,,5x,,,,,{12}6,
7,8x,1x,2,3,{16}4x,5x,6x,7,8,1x,2x,3,
4x,5x,4p1b[2.0635##0.9524],5-8[16:17],{1},{4},,C,
,,{2}B7/E7/B6,
{4},7<4[8:1]`3>8b[8:1],3/7-3[8:1]*-3[8:1],{8}2-5[8:1],1,
2x/5x,6,{16}7/8,1,2,3,4/5,6,7,8,5bx,4,3,2,
8/1-4b[8:1],7,6,5,{4}4bx,{8}6b<1[8:1],5,6/2-5b[8:1],3,
2b,8-4[8:1],7x,1/8<6[8:1],2>5b[8:1],8-4[8:1]*-4[8:1],2,8,
{4}1bx,{16}5x,6x,7x,8x,{8}2>5[8:1],5-1[8:1],2,8x,
7<4b[8:1],4-8b[8:1],7,1,{24}2bx,3x,{12}4x,{24},,7bx,6,{6}5,
{24}1b,2,3,4x,,,{4}8xh[4:1],{8}7,6,5/7,4,
{4}6/3>7[4:1],7<3b[4:1],3x,1bxh[4:1],
{8}2,3,4/2,5,{4}3-8[8:1]/6bx-1b[8:1],6-4[8:1]/3bx-5b[8:1],
6b/3b,{8}2x/6x,4,5,8/2,7,4,
{4}8x/3b>8[8:1]*>8[8:1],3/7b<4b[8:1],3/7b,{16}2x,4x,3,7x,
5,6,1x,3,2,8x,6,7,1bx`2bx,{32}3,4,{8}5,{16}8b/7b,{32}6,5,{8}4,
{32}1bx,2x/8x,3x/7x,4x/6x,{8}5bx,8x<5[8:1],2x/1x,{4}8/3-7b[8:1],{16}3,5,{8}5,
{16}8x,6x,{8}6,8<6[8:1],{16}4,4,{8}8b,{16}2,2,{8}5b-1b[8:1],{16}3,3x,
{4}5,2x-4b[8:1]/8x-4b[8:1],2b-6b[8:1]/8b-6b[8:1],8bv5b[8:1]/2bv5b[8:1],
2bx/8bx,{8}1>4[8:1],7/8,{4}1/6-2b[8:1],{16}6,4x,{8}4x,
{16}1x,3,{8}3,1>3[8:1],{16}5,5,{8}1b,{16}7,7,{8}4bx-8b[8:1],{16}6,6x,
{4}4,{8}1x/7x,3x/5x,8/4b,3x/7x,1b/5,3x/8x,
{4}6/2b,8h[8:3],,,4h[4:1],
,,6h[8:3],
,,{2}3h[4:1],
{8},,4h[16:1],5h[16:1],6h[24:1],7h[24:1],8xh[24:1],1h[32:1],
{16}8,1,8,1,8,1,8,1,{24}8bx-5[1:1]*-5[1:1],1bxs5b[24:23],8x,1x,8x,1x,{4}8bx,
,,,,,C/5<3<4>5[2:21]*>5b[2:21],
,C,
{2}C,{4}B8,B3,
,C,{2}C,
{4}B7,B3,,C,
{2}C,{4}E1,E5,
,C,{2}C,
{4},C,,C,
{2}C,{4}B6,B1,
,C,{2}C,
{4}B3,B8,,C,
{2}C,{4}B6/B5,B1/B2,
E
