&title=キノピオファクトリー
&artist=不知道
&first=-0.03
&des=Kondou
&lv_5=13+
&inote_5=(110){1},
(221){12}1-5[8:1],,,Cf,,,,,7,8,,2,1w5[8:1],,,Cf/B7/B3,,,,,2,4,3,5,
4x-2[8:1],,,4pp1[8:3],,,1b,,,,,2,2,,5,4>6[8:3],,8b/4x,,,,,,,
5x-7[8:1],,,5qq8[8:3],,,8b,,,,,7,7,,4,5<3[8:3],,1b/5x,,,4,
(210){4}4w8b[8:1],
(217){1}4b,,
(217){8}3h[8:1],5h[8:1],4h[8:1],6h[8:2],,5,4>5pp4[8:19],,
(220){1}8hx[8:8],,,
{12},,,,,,,,,3,4,3,
5x,,,,,2,4,,,1,,,
5,,,,,2,5,6,7,4,3,2,
5x,,,,,2,4,,,1,,,
5,,,,,2,5,6,7,4,3,2,
8,1,8,2,1,2,7,8,7,3,1,3,
5b-7[8:1],,,1,,,3/5-8[8:1],,,1,,,
53,,3,4,,5/2-5[8:1],,,7,,,7,
6p2[8:1],,,1,,,5p1[8:1]/6,,,8,,,
54,,3,4,,2-6[8:1]/5h[8:2],,,,,,5,
4b-2[8:1],,,8,,,6/4-1[8:1],,,8,,,
46,,6,5,,4/7-4[8:1],,,2,,,2,
3-6[8:1],,,2-7[8:1],,,5,,5,1,,1,
7bpp4[8:3],,,3,,3,,,1x,,,1,
{8}7b/2b-6[8:1],,2/6,5b-8[8:1],,5,2b-6-4b[8:2],,,,
8-5[8:1],,8,1,1x,,
2b/7b-3[8:1],,7/3,4b-1[8:1],,4,7b-3-5-8b[8:4],,,,,,,,E1,,
{12}1x^4[8:1],,,8,,,7x^4[8:1],,,8,,,
1V37[8:2],,,5,,5h[12:3],,,8,,,1,
7,,7x/6x,,,3,4,,2x/3x,,,8,
1x/7x,,3,4,,6,5,,2,4,3,6,
{8}5b^2[8:1],,65,8bp4[8:1],,8,{24}3b,2x,1xh[24:8],,,,
{12},,4,3,,3,6,,6,5,,,
{8}4b^7[8:1]/2b,,34,1bq5[8:1],,1,{24}6b,7bx,8bxh[24:4],,,,
(225){12}4,3,2,7,6,5,3,4,3,6,5,6,
(215){12}1b-4[8:1],,,7-4[8:1],,,2-5[8:1],,,8-5[8:1],,,
(220){12}1,,1,7,,7/5^2[8:1],,,8^5[8:1],,,8,
1b-3[8:1],,,8b-4[8:1]/1,,,7b-5[8:1]/8,,,7/3b,,1h[8:4],
,,,{32},,,,A4,B4,C,B8,{12}A8f/3b,,,,,,
5/4,,,72,,,54,,4,1,,,
43,,3,1,,1,5<3b[8:3],,,7b/5b,,,
,,,5-8[8:1],,,51,,3x,,,3x/B8/E8/B7,
,,6x/B1/E2/B2,,,8b/4bh[8:2],,,,6,5,6,
1bq5[8:1],,,1x/E8/B7,,,6-3[8:1],,6,E2/B2,,,
8^3[8:1],,8,E6/B6,,7x-5-8-4b[8:4],,,,A5/D5/A4f/D4/A3,,,
,,,1h[12:3],,,{8}4,6x/3x-6[8:1],,,
{12}8b<1[8:13],,,8x,,,8x,,,,,7x,,,7x,,,7x,7x-4[8:1],,,,,,
{12}1x/5x,,,1V38[8:2]/5,,,(225){12}1/5,,,,,7x/1x,,,
71,,,71,(220){12}2x,3,4,7,6,5,
(215){12}1b-6[8:1],,,1/7,,,2-5[8:1],,2,5,,,
(220){12}1-6[8:1]/8,,1,7,,7h[8:2],,,{24}5xV71[4:1],4xV68b[6:1],{12}6b/3bx,,,,
,,2x-6[8:1],,,2/6,,8,,,7/B4/E4/B3,,
,2/B5/E6/B6,,,8b/4bh[8:2],,,,6,5,6,
2b^5[8:1],,,2/B3/B4,,,8-4[8:1],,8,B1/E2,,,
3p7[8:1],,3,E6/B5,,4x-7-3-8b[8:4],,,,A7/D8/A8f/D1/A1,,,
,,,1xh[8:2],,,4,,3x-6[8:1]/6x,,,,
8hx[8:2],,,5h[8:2],,,1h[8:2],,,4h[8:2],,,
2h[8:2],,,3h[8:2],,,4h[8:2],,,5h[8:2],,,
6h[8:2],,,1h[8:2],,,8h[8:2],,,3h[8:2],,,
4,,4,2xh[8:2],,,5,4,5,3,4,3,
8bh[8:8],,,,,5,,,4,4,,,
3,,3,4,,4,5,,5,7b,,,
3x,4,3,6,5,6,2,4,3,7,5,6,
1x,2,3,8,7,6,(225){12}1,1x,1x,4,4x,4x,
(220){12}3bh[8:4],,,,,4,4,,,1,,,
5x/3x,,,,,5,5,,3,4,,4,
1x,,,,,3,3,,,8,,,
5x/4x,,,,,4,4,,6,5,,3,
4b,,,,,4,4,,,1,,,
{12}5x/3x,,,,,5,5,,3,4,,4,
1x,,,,,3,3,,,8,,,
5x/4x,,,,,4,4,,6,5,,2,
4,3,4,2,8,2,6,5,6,1,7,1,
8b/2b,
