&title=Synthesized Fortress
&artist=M
&first=0
&des=FIONAL
&lv_4=12+
&lv_5=14
&inote_4=(172)
{1},
{4}1h[4:1],2h[4:1],3h[4:1],4h[4:1],5h[4:1],6h[4:1],7h[4:1],8h[4:1],
{12}1b,,1,1x-4[2:1],,,,,,Ch[4:3],,,,,,,,,,,,,,,8,,8,8x-5[2:1],,,,,,Ch[4:3],,,,,,,,,,,,,,,
{12}5b,,,3,4,3,4h[6:1],,,2,1,2,1h[6:1],,,5,6,5,6h[6:1],,,8,7,8,7h[6:1],,,4,5,3,4h[6:1],,,1,8,2,1h[6:1],,,3,5,4,6h[6:1],,,1,2,8,7h[6:1],,,1>3[6:1],,,8,,,8<6[6:1],,,1,,,2>4[6:1],,,1,,,7<5[6:1],,,8,,,B8,,,B6,,,B4,,,5h[4:1],,,1,,,3,5,4,6,4,5,2h[6:1],,,8<6[6:1],,,1,,,1>3[6:1],,,8,,,7<5[6:1],,,8,,,2>4[6:1],,,1,,,B1,,,B3,,,B5,,,4h[12:1],,,4,5,4,8x<5[6:1],,,,,,
{2}2-6[6:1],1-5[6:1],8-4[6:1],7-3[6:1],6-2[6:1],5-1[6:1],
{4}4,2,8,6,
{2}7-3[6:1],8-4[6:1],1-5[6:1],2-6[6:1],3-7[6:1],4-8[6:1],
{4}5,7,1,3,
{12}6h[6:1],,,4>2[6:1],,,5,,,5<7[6:1],,,4,,,3>1[6:1],,,4,,,6<8[6:1],,,5,,,B5,,,B7,,,B1,,,8h[4:1],,,4,,,2,8,1,7,1,8,3h[6:1],,,5<7[6:1],,,4,,,4>2[6:1],,,5,,,6<8[6:1],,,5,,,3>1[6:1],,,4,,,B4,,,B2,,,B8,,,1h[12:1],,,1,8,1,5x<8[6:1],,,,,,
{12}2,,2,5,,5,4,,4,7,,7,1,,1,8,1,7,3xh[4:1],,,,,,3h[4:1],,,,,6,3x,,5,2x,,7,1h[6:1],,,1,8,1,7-5>4[6:1],,,,,,3,,3,8,,8,1,,1,6,,6,4,,4,5,4,6,2xh[6:1],,,2,1,8,7bh[1:1]b,,,,,,,,,,,,Ch[1:1]f,,,,,,,,,,,,
{12}5<8[2:1],,,4,,,3,,,2,,,1>4[2:1],,,8,,,7,,,6,,,
{12}5<8[2:1],,,4,,,3,,,2,,,1>4[2:1],,,8,,,7,,,6,,,
{12}5b,,5,4,,4,3,,3,2,,2,6,,6,7,,7,8,,8,1,,1,5,,2,6,,3,7,,4,8,,6,3,,5,1,,6,2,,7,3,,5,
{12}2-6[12:1],,,8,,,7-3[12:1],,,1,,,4-8[12:1],,,6,,,5-1[12:1],,,3,,,2/8,3,4,5,6,7,8,1,2,3,4,5,6xh[4:1],,,7h[4:1],,,8h[4:1],,,1h[4:1],,,
{12}5-8[12:1],,,2,,,2,7,2,6,3,5,4xh[4:1],,,,,8,8<6[12:1],,,,2,3,4-1[12:1],,,,,,,8,,3/5,6,,2-6[8:1],,,1-5[8:1],,,8-4[8:1],,,7-3[8:1],,,,,,1,,,7,2,7,3,6,4,5xh[4:1],,,,,1,1>3[12:1],,,,7,6,5-8[12:1],,,,,1,1,,4/6,4/6,,,7-3[8:1],,,8-4[8:1],,,1-5[8:1],,,2-6[8:1],,,,,,,,,,7,8,7,,6,1x/6x,,,2,1,2,3x/8x,,,8,1,8,2xh[4:1]/7xh[4:1],,,,,,,2,8,2,,5,4xb/6xb,,,2b/8b,,,3b/5b,,,1b/7b,,,
{12}8-5[12:1],,,,,4,4,,7,7,,1,2x-5[12:1]/8x,,,8,,,
{8}3,4,5,6,
{12}2h[4:1]/7h[4:1],,,,,,,,7,1,,2,2/8-4[6:1],,,,,,2-6[6:1],,,,,,7-3[6:1],,,,,,1-5[6:1]b,,,,,,
{12}8-5[12:1],,,3,,,3,6,3,7,2,8,1xh[4:1],,,,,5,5<7[12:1],,,,3,2,1-4[12:1],,,,,,,5,,2/8,7,,3-7[8:1],,,4-8[8:1],,,5-1[8:1],,,6-2[8:1],,,,,,4,,,6,3,6,2,7,1,8xh[4:1],,,,,4,4>2[12:1],,,,6,7,8-5[12:1],,,,,4,4,,1/7,1/7,,,6-2[8:1],,,5-1[8:1],,,4-8[8:1],,,3-7[8:1],,,,,,,,,,6,5,6,,7,4x/7x,,,3,4,3,2x/5x,,,5,4,5,3xh[4:1]/6xh[4:1],,,,,,,3,5,3,,8,7xb/1xb,,,3b/5b,,,4b/8b,,,2b/6b,,,
{12}4-1[12:1],,,,,8,8,,3,3,,5,6x-1[12:1]/4x,,,4,,,2x,3,,6x,7,,1xh[4:1],B5,B6,B7,B8,B1,,,5,4,,7,2>5[6:1],,,B1/B8,,,7<4[6:1],,,B1/B8,,,3>8[6:1],,,B4/B5,,,6<1[6:1],,,B4/B5,,,5xh[1:1],B4,B3,B2,B1,B8,B7,B6,,,,,4,,,8,8,1,1b/8b,
&inote_5=(172)
{1},
{12}6x,5,7,3x,4,2,7x,8,6,2x,1,3,6x,5,7,3x,4,2,8x,6,7,1x,3,2,8x/1x,,1/8,1h
[4:1]/8h[4:1],,,,,,6,4,5,2x/6x,,2/6,2pp5[4:1]/6pp1[4:1],,,,,,,,,4x/5x,,5/4,5h
[4:1]/4h[4:1],,,,,,2,8,1,6x/2x,,6/2,6pp1[4:1]/2pp5[4:1],,,,,,,,,
{12}2/8,,,5v2[12:1],4,4,5,,,2v7[12:1],3,3,2,,,7,8,6,2,1,3,5v8[12:1],4,6,5,,,8v3[12:1],7,7,8,,,3v6[12:1],4,4,3,,,6,5,4,
{24}7,8,1,2,3,4,5x/1xw5[12:1],,8,,2,,1b,,,,,,
{12}7,1,8,2h[6:1],,,2,3ui,4,5h[6:1],,,5,3,6,4h[6:1],,,4,5,6,7-3[8:1],,,8-4[8:1],,,1-5[8:1],,,2-6[8:1],,,8h[6:1],,,4,,,7,4,6,4,5,3,8,
,,2,8,1,7h[6:1],,,7,6,5,4h[6:1],io,,4,6,3,5h[6:1],,,5,4,3,2-6[8:1],,+,1-5[8:1],,,8-4[8:1],,,7-3[8:1],,,1h[6:1],,,1,8,2,6h[6:1],,,
{24}B3,B4,B5,,,,
{12}8<4[6:1],,,B1/B2,,,3>7[4:1],3,,B4/B5,,,6>2[4:1],,,B7/B8,,,1<5[4:1],1,,B2/B3,,,4>8[4:1],,,B5/B6,,,7<3[4:1],,,B7/B8,,,2-6[8:1],,,1-5[8:1],,,8-4[8:1],,,7-3[8:1],,,
{12}1>5[6:1],,,B8/B7,,,6<2[4:1],6,,B5/B4,,,3<7[4:1],,,B2/B1,,,8>4[4:1],8,,B7/B6,,,5<1[4:1],,,B4/B3,,,2>6[4:1],,,B2/B1,,,7-3[8:1],,,8-4[8:1],,,1-5[8:1],,,2-6[8:1],,,
{12}7,,,
{12}3,5,4,6h[6:1],,,6,7,8,1h[6:1],,,1,7,2,8h[6:1],,,8,1,2,3-7[8:1],,,4-8[8:1],,,5-1[8:1],,,6-2[8:1],,,4h[6:1],,,8,,,3,8,2,8,1,7,4,
,,6,4,5,3h[6:1],,,3,2,1,8h[6:1],io,,8,2,7,1h[6:1],,,1,8,7,6-2[8:1],,+,5-1[8:1],,,4-8[8:1],,,3-7[8:1],,,5h[6:1],,,5,4,6,2h[6:1],,,
{24}B7,B8,B1,,,,
{12}1x>5[4:1],,5,5<1[4:1],,1,1>5[4:1],,,,,,8x<4[4:1],,4,4>8[4:1],,1,2h[4:1],,,,,,2h[4:1]b,,,
{24},,,,4,3,2,,8,,2,,1,,2,,3,,4/5,,,,,,5,,4,,5,,3<6[6:1],,,,,,3/7,,,,,,
{12}8x<4[4:1],,4,4>8[4:1],,8,8<4[4:1],,,,,,1x>5[4:1],,5,5<1[4:1],,8,7,,,
{12}7,2,5,
{24}1b,2,3,4,5,6,7,8,1,2,3,4,5,6,7,8,1,2,3,4,5,6,7,8,1,8,1,8,1,8,1,8,1,8,1,8,2,7,2,7,2,7,2,7,2,7,2,7,
{12}3xh[6:1],,,5,3,7,2,1,2,1,2,2,7xh[6:1],,,3,5,4,7,8,7,8,7,7,1xh[6:1],,,8,2,6,3,4,3,4,3,3,6xh[6:1],,,2,8,1,6,5,6,5,6,6,4b,5,3,7,8,6,2,1,3,5,4,6,3,4,2,8,1,7,1,8,2,6,5,7,2,1,2,7,8,7,3,4,3,6,5,6,3,4,2,6,5,7,1,3,2,8,6,7,
{24}1x/8xh[4:1],,B1,B2,B3,B4,B5,B6,B7,,,,4xh[4:1]/5x,,B5,B6,B7,B8,B1,B2,B3,,,,{24}8x/1xh[4:1],,B8,B7,B6,B5,B4,B3,B2,,,,5xh[4:1]/4x,,B4,B3,B2,B1,B8,B7,B6,,,,
{12}4,6,3,5,2,8,1,7,4,6,3,5,
{12}6,5,7,3,4,2,8,1,7,1-5[6:1],8,2,
{12}1bx,,4,4,,7,7,3,4,2,1,3,8-4[6:1],,1,1/8,,2,2>5[6:1],
{24},,5,6,7/2,,B7,,,,8x-4[6:1],,
{12},3,8,,2,2,5,3,4,6,5,7-3[8:1],,,7/8-4[8:1],,,8/1-5[8:1],,,1/2-6[6:1],,,2/8,,7,7,,4,4,6,5,6,
{24}8,1,2,3,4-8[6:1],,
{12},6,4/6,,7,7<4[6:1],
{24},,4,3,2/7,,B2,,,,
{12}1x-5[6:1],,7,1,,
{24}8,7,6,,4,,6,,7,,8,,1,,
{12}2-6[8:1],,,1-5[8:1]/2,,,8-4[8:1]/1,,,7-3[8:1]/8,,,1/7,,4,4,,6,6,2,8,2,3,4,5,,o,
{24}8-4[12:1],7,8,1,2,3,4,,,,,,1,2,8,2,8,3,4xh[4:1]/7xh[4:1],,,,,,,,,,,,
{12},7,8,7,6,5,4-8[8:1]b,,,4/5-1[8:1],,,5/6-2[8:1]b,,,6/7-3[8:1],,,1h[4:1]/7,,,,,
{24}8,1,7,,,,3,2,1,,8,,1,,
{12}7/2,7,7,4/6,4,4,
{8}3/5,5,2/6,2,
{12}7h[2:1]b,8,1,2,3,4,5,7,4,6,3,5,
{24}2/4,,4x,5,6,7,8,,,,,,1/7,,1x,2,3,4,5,,,,,,2/8,,8x,7,6,5,4,,,,,,
{12}B3,B4,B5,B6,,,
{12}1xh[4:1]/Cf,,6,6,,2,2,6,5,7,8,6,1-5[6:1],,8,8/1,,7,7<4[6:1],
{24},,4,3,2/7,,B2,,,,1x-5[6:1],,
{12},6,1,,7,7,4,6,5,3,4,2-6[8:1],,,2/1-5[8:1],,,1/8-4[8:1],,,8/7-3[6:1],,,7/1,,2,2,,5,5,3,4,3,
{24}1,8,7,6,5-1[6:1],,
{12},3,5/3,,2,2>5[6:1],
{24},,5,6,7/2,,B7,,,,
{12}8x-4[6:1],,2,8,,
{24}1,2,3,,5,,3,,2,,1,,8,,
{12}7-3[8:1],,,8-4[8:1]/7,,,1-5[8:1]/8,,,2-6[8:1]/1,,,8/2,,7,7,,3,3,7,1,7,6,5,4,,o,
{24}1-5[12:1],2,1,8,7,6,5,,,,,,8,7,1,7,1,6,5xh[4:1]/2xh[4:1],,,,,,,,,,,,
{12},2,5,3,7,2,1-5[8:1]b/8-6[8:1]b,,,1-3[8:1]b/8-4[8:1]b,,,1-5[8:1]b/8-6[8:1]b,,,1-3[8:1]b/8-4[8:1]b,,,1x/8x,,,
{24},,,,5,4,6,,3,,7,,2,,8,,1,,
{12}7-3[8:1],,,7/1-5[8:1],,,1/8x,7,6,4x,3,2,1b/8b,7,2,6,3,5,4v7[12:1],5,3,4x,,2,1/7,
{24}1x,2,3,4,5,,,,,,2/8,,8x,7,6,5,4,,,,,,5/7,,5x,4,3,2,1,,,,,,3/5,,5x,6,7,8,1,,,,,,
{12}2,5,3,4,2,8,1,7,3,5,4,6,2x/7x,,,1/8,1/8,1/8,1b/8b,
