&title=海芋花 [Long ver.]
&artist=DualInsomiNa二重不眠症
&first=0
&des=伊吹萃香
&lv_5=14
&inote_5=(157.50)
{16}
,,,,
,,,,
,,,,
{16}
3h[4:1]/4,,,,
,,,,
,,,,
{16}
5h[4:1]/7,,,,
8,,,,
,,,,
{16}
1h[4:1]/2,,,,
3,,,,
4,,,,
{16}
4/5h[4:2],,,,
,,,,
,,,,
{16}
6h[4:1]/5,,,,
4,,,,
3,,,,
{16}
2h[4:1]/4,,,,
1,,,,
8,,,,
{16}
7p1[8:8]`3p5[8:8],,,,
,,,,
,,,,
{16}
,,,,
,,,,
,,,,
{16}
1h[8:4]/5,,,,
,,,,
7pp1[16:6],,,,
{16}
2h[8:2],,,,
,,,,
3,,,,
{16}
2h[8:4]/6,,,,
,,,,
1q7[16:7],,,,
{16}
4h[8:2],,,,
,,,,
3h[8:2],,,,
{16}
8<3[16:8],,,,
,,,,
3<7[16:5],,,,
{16}
1h[8:2],,,,
,,,,
6/2,,,,
{16}
2/1s5[8:4],,,,
4,,4,,
,,2,,
{16}
2h[8:2],,,,
5,,5,,
3h[8:2]/6,,,,
{16}
6p1[8:2],,,,
1>6[8:4],,,,
,,,,
{16}
1,,,,
2,,,,
3pp2[16:7],,,,
{16}
4>7[8:4],,,,
,,,,
,,,,
{16}
6h[8:2],,,,
5,,5,,
4/7h[8:2],,,,
{16}
6p2[8:2],,,,
,,,,
1,,8,,
{16}
7<4[8:2]/2,,,,
4>1[8:2],,,,
1<6[16:3],,,,
{16}
5bqq5[8:3]*pp5[8:3],,,,
,,,,
,,,,
{16}
4x,3x,2x,1x,
5x,6x,7x,8x,
Chf[4:1],,,,
{16}
8b<4[8:2]*>4[8:2],,,,
,,,,
,,,,
{16}
5/2>5[8:1],,2,,
7xp3[8:1],,,,
7x/1h[8:2],,,,
{16}
4>1[8:1],,5,,
6,,7,,
8,,1,,
{16}
8/2q6[8:1],,,,
7<4[8:1]/2x,,,,
7x/1h[16:3],,,,
{16}
4h[16:1]/2h[16:1],,,5h[16:1]/3h[16:1],
,,6h[16:1]/4h[16:1],,
7,,56,,
{16}
7-4[8:1],,4<7[8:1],,
7xV15[16:3],,1x,,
2xh[8:1],,,,
{16}
A3,E4,E8,A7,
A2,B2,B6,A6,
A1,E1,E5,A5,
{16}
A2,E3,E7,A6,
E4,A4,A8,E8,
A1,B1,B5,A5,
{16}
2xh[8:2],,,,
3V52[8:2],,4,,
5/3,,6,,
{16}
7x-3[8:1],,,,
7x/1-6[8:1]*-4[8:1],,,,
1x,,,,
{16}
7h[8:2],,,,
6pp4[16:6],,5,,
4/6,,3,,
{16}
2x-6[8:1],,,,
2x/4-7[8:1]*-1[8:1],,,,
4x,,,,
{16}
6h[8:1],,3h[8:1],,
4h[8:1],,1h[8:1],,
7h[8:1],,5h[8:1],,
{16}
8-3[8:1],,8,,
5>2[8:1],,5,,
1x,8x,7x,6x,
{16}
5xh[8:4]/1x-4[16:5],,,,
,,,,
,,,,
{16}
4xh[8:4]/3x-7[16:5],,,,
,,,,
,,,,
{16}
8x>4[8:3]/4x<8[8:3],,,,
,,,,
,,,,
{16}
37,,2,4,
1q5[8:1],,6,,
1x/8b,,,,
{16}
6,4,5h[8:2],,
,,3,4,
2h[8:8],,,,
{16}
1,,,,
,,1,,
,,1,,
{16}
7h[8:5],,,,
,,6,,
,,6-4[8:1],,
{16}
64,,,,
,,2,4,
3h[8:2],,,,
{16}
5,4,6h[8:5],,
,,7,,
7,,,,
{16}
1h[8:5],,,,
,,7,,
,,7,,
{16}
7h[8:5],,,,
3,,,,
,,3-5[8:1],,
{16}
5/3,,,,
,,,,
{32}
5bx/4bx,6bx/3xh[32:7],,,,,,,
{16}
5,,5,4h[8:1],
,6,4,5,
3h[8:2],,,,
{16}
8,,6h[16:1]/4h[16:1],,
,5h[16:1]/7h[16:1],,,
8h[16:1]/6h[16:1],,,,
{16}
7,,4,5,
3h[8:2],,,,
4,2h[16:3],,,
{16}
8,,6h[16:2],5h[16:1],
,,4h[16:1]/2h[16:1],,
,1h[16:1]/8h[16:1],,,
{16}
6,,3,4,
3,,5h[16:1]/4h[16:1],,
,2h[16:1]/6h[16:1],,,
{16}
8,,3,4,
3h[8:2],,,,
5,4h[16:3],,,
{16}
,,7h[16:2],6h[16:1],
,,5h[16:1]/3h[16:1],,
,1h[16:1]/2h[16:1],,,
{16}
8,,2,5,
4,,63,,
8p3[8:1],,8pp5b[8:21],,
{16}
3qq5[8:20],,,,
,,,,
,,,,
{16}
,,,,
,,,,
,,,,
{16}
,,,,
,,,,
,,,,
{16}
,,,,
,,,,
,,,,
{16}
6h[8:18],,,,
,,,,
,,,,
{16}
,,,,
,,,,
,,,,
{16}
2h[8:11],,,,
,,,,
,,,,
{16}
,,,,
,,,,
,,
{24}
7,6,5,
{16}
4/3,,2,4,
2,,6,5,
7,5,7,,
{16}
18,,
{24}
2,3,4,
{16}
56,,8,,
2,2,4,,
{16}
73,,1,,
7,5,6,4,
5,,26,,
{16}
2,4,3,5,
4,,7,5,
6,,2,,
{16}
37,,4,6,
3,7,2,8,
3,7,2,6,
{16}
1,5,1,,
2/6,,2/6,,
3>8[8:1]/7q4[8:1],,4/8,,
{16}
3bx<7v4-6-8[8:8]/7bx,,,,
,,,,
,,,,
{16}
1xh[32:23],,,,
,,,,
,,,,
{32}
7bx/2x,6bx<3[16:5]/3x,5bx/4x,,,,,,
{16}
2,,3,,
4pp3[16:5],,,,
{16}
4/3,,,,
1<5[16:3],,,,
1/2,,3,,
{16}
4h[8:2],,5,,
6,,7h[8:2],,8>6[8:2],,1,,
{16}
3/8,,,,
1-5[8:1],,,,
1/7,,8,,
{16}
2V41[8:2],,,,
1-5[8:1],,8,,
7-3[8:1],,6,,
{16}
5-8[16:2]/7,,,,
3-7[8:1],,,,
3/1-5[8:1]*-6[8:1],,,,
{24}
1b>6[16:5]/Cf,,,
,,,
{16}
,,7,,
8qq8b[16:4],,1,,
{16}
8/2,,,,
1,2,3,4,
5x/7v4[8:1],,,,
{16}
2bV86[16:4],,,,
6,,5,,
4v7[16:2],,,,
{16}
4/3,,,,
6-4[8:1],,,,
6/8p3[16:3],,1,,
{16}
3b,,,,
2-5[8:1],,4,,5p1[8:1]/2,,6,,
{16}
8,,,,
2h[8:2],,4,,
6h[8:2],,8,,
{16}
7V58[8:2],,,,
8-4[8:1],,1,,
2>5[8:1],,3,,
{16}
2/4-1[8:1],,,,
6-2[8:1],,,,
6/8>7[8:4],,,,
{16}
5h[16:12],,,,
,,,,
,,,,
{16}
7,6,5,4,
3/8,7,6,5,
4/1,8,7,6,
{16}
1h[8:11]/5h[8:11],,,,
,,,,
,,,,
{16}
,,,,
,,,,
,,,,
{16}
3b,6,5,7,
2b,6,5,7,
1b,6,5,7,
{32}
1x,2x,3x,
4x,5x,6x,7x,8x,
{32}
E1f,E2,E3,E4,
E5,E6,E7,E8,
D1f/E1,,,,
,,,,
{16}
5x/4x,,3,4,
2,,1,,
28,,7,,
{16}
6<1[8:1],,5,,
2x-6[8:1]/6x-4[8:1],,,,
2x/6x,,,,
{16}
4/5,,6,5,
7,,4,,
2,,6,,
{16}
5/3>8[8:1],,2,,
3x/7x-3[8:1]*-5[8:1],,,,
7x,,,,
{16}
2,4h[16:2],,3,
5h[16:2],,4,6h[16:1],
5,,6,,
{16}
7-4[8:1],,4<7[8:1],,
7-1[8:1],,1-5[8:1],,
2x-6[8:1],,3,,
{16}
2xq5b[8:3],,,,
,,,,
,,,,
{16}
6,5,7,4,
5,3,6,4,
{24}8x,7x,6x,
2x,3x,4x,
{16}
5hx[8:3]/6,,6,,
7,,6,,
,,65,,
{16}
74,,,,
4h[8:3]/5,,5,,
6,,5,,
{16}
63,,,,
5h[8:3]/2,,3,,
,,3,,
{16}
26,,,,
2,4,2,4,
1,,6,5,
{16}
8h[8:3],,3,,
4,,5,,
,,45,,
{16}
3h[8:3]/6,,,,
8,,8,,
6,,5,,
{16}
1h[8:5]/4,,,,
3,,3,,
,,4,2,
{16}
5,4,7,3,
5,4,6,2,
{24}
7x,6x,5x,
1x,2x,3x,
{16}
4x/5x,,6,4,
7v8[8:1],3v2[8:1],6,4,
,,,,
{16}
6,,4,1,
2v4[8:1]*-8[8:1],8,3,,
,,,,
{16}
56,,7,5,
8-4[8:1],4-8[8:1],,,
,,,,
{16}
3,,2,6,
4p8[8:1]*qq2[8:1],5,3,,
,,,,
{16}
6,,3,7,
1s5b[8:1],5,2,7,
1b,,,,
{16}
6,,7,5,
6v8[8:1]*-4[8:1],4,,,
,,,,
{16}
2,,3,4,
2-5[8:1],5,1,6,
,,7,,
{16}
6,5,7,3,
5,4,7,3,
{24}
8x,7x,6x,
4x,3x,2x,
{16}
8x/1x,,6,4h[8:1],
,5,3h[8:1],,
4q8[8:1],,2,,
{16}
1,,2,7h[8:1],
,1,8h[8:1],,
2,,6,,
{16}
71,,3,5h[8:1],
,4,6h[8:1],,
5p1[8:1],,7,,
{16}
8,,7,3h[8:1],
,6,2h[8:1],,
5-8[8:1],,4,,
{16}
3,,2,6h[8:1],
,3,7h[8:1],,
4,,6,,
{16}
18,,7,2h[8:1],
,6,1h[8:1],,
5v7[8:1],,2,,
{16}
3,,2,6h[8:1],
,3,5,,
36,,4,5,
{16}
3h[16:1],6h[16:1],4h[16:1],5h[16:1],
{24}
2,3,4,5,6,7,
{16}
2,4,5,7,
{16}
1bp1[16:18],,,,
{12}
6xqq3b[16:14],,,
,,,
{16}
,,,,
{16}
,,,,
,,,,
{16}
1xh[16:10],,,3x,
,,3x,,
3x,,3x,,
{16}
6-3[24:3]/5h[8:3],,,,
,,,,
{24}
2x-6[8:1],1x,8x,7x,6x,5x,
{16}
2x/4x-8[8:1],,,,
4/1-5[8:1],,,,
1/7-3[8:1],,,,
{16}
7/2-5[8:1],,2,,
2/8-4[8:1],,8,,
8/3,,3,,
{16}
2,6,3,4,
2,7,4,5,
2,8,5,6,
{16}
1,2,3,4,
{24}
1,8,7,6,5,4,
{32}
1,2,3,4,5,6,7,8,
{32}
5b>7[16:5]/1,,,,,,,,
{16}
6,,5x,,
4pp6[16:3],,,,
{16}
4p8[8:1]/1,,,,
3<6[16:2],,,,
3/7,,8,,
{24}
1,2,3,4,5,6,
{24}
7,8,1,
{16}
2,,
{16}
4-2-8-6[8:2],,5,,
{16}
6/4,,,,
4-8[8:1],,,,
1/4-1[8:1]*-2[8:1],,3,,
{16}
4bV63[8:2],,,,
3-7[8:1],,2,,
1q5[8:1],,8,,
{16}
1/6>3[16:2],,7,,
8-4[16:2],,,,
82,,1,,
{24}
4bx/8bx,5/1,6/2,
7/3p6b[16:3],,,
{24}
,,,
{16}
6,,
5pp5[8:2],,4,,
{16}
53,,,,
4,3,2,1,
8-4[8:1]/4,,5,,
{16}
7bV13[16:4],,,,
3,,4,,
5-1[16:2],,,,
{16}
5/6-2[16:2],,,,
1<5[16:3],,,,
2/1,,3,,
{16}
4,3,2,1,
8pp6[16:6],7,6,5,
{16}
4x/8x,,5x,,
{16}
5x,,,,
7-3[16:2],,1,,
7/3,,5,,
{16}
5V36[8:2],,,,
6-2[8:1],,7,,
8-4[8:1],,1,,
{16}
8/3-7[8:1],,,,
2-6[8:1],,,,
2/1<2[8:4],,,,
{16}
1/4h[8:6],,,,
,,,,
,,,,
{16}
2,4,2,4,
8,3,8,3,
6,2,6,2,
{16}
7b,6,5,4,
8,7,6,5,
4/8h,3,2/6h,1,
{16}
4b/8h[8:1],,6,,
5/7h[8:1],,3,,
1h[8:1]/8b,,4,,
{16}
5b,3,4,1,
6b,3,4,1,
7b,3,4,2,
{32}
8b,7,6,5,
4,3,2,1,
8b,7,6,5,
4,3,2,1,
8b-4b[8:1],7b,6b,5b,
4b,3b,2b,1b,
{16}
8b/Cf,,,,
,,,,
,,,,
{16}
,,,,
,,,,
,,,,
{16}
,,,,
,,,,
,,,,
{16}
,,,,
,,,,
,,,,
E
