&title=Pet Peeve
&des=SP七级
&artist=Hirayasu Matsudo
&wholebpm=140
&first=1.043
&first_1=
&first_2=
&first_3=
&first_4=
&first_5=
&amsg_first=
&tap_ofs=
&hold_ofs=
&slide_ofs=
&break_ofs=
&lv_1=1
&lv_2=3
&lv_3=5
&lv_4=8
&lv_5=11
&seek=
&wait=
&inote_1=
{1}
,,,,
1,1,1-5[4:3],,
1,2,3,4,5,6,7,8,
8,7,6,5,4,3,2,1,
2,2,2h[1:1],,7,7,7h[1:1],,
1b,,2b,,3b,4b,5b,6b,
1-4[4:3],,8-5[4:3],,
1-5[4:3],,8-4[4:3],,
1,2,3,4,5,6,7,8,
8,7,6,5,4,3,2,1,
8h[1:1],{8},1b,,,,
{16}
,8-4[1:2],
{1},,,,,,,,,,
,,,,,,,,
E
&amsg_time=
&amsg_content=
&inote_2=
{1}
,,,,
{4}
1,,2,,3,,4,,
8^5[2:1],,,,1^4[2:1],,,,
{2}
1,1,2,2,3,3,4,4,8,7,6,5,8,7,6,5,
{1}
8^5[4:3],,1^4[4:3],,
7^4[4:3],,2^5[4:3],,
{4}
1,1,1,,2,2,2,,3,,3,,4,,4,,
8,8,8,,7,7,7,,6,,6,,5,,5b,,
,1,,1,,2,,2,,3,,3,,4,,4,,8,,8,,7,,7,,6,,6,,5,,5,
{8}
1,,1h[4:1],,,,,2,,,2h[4:1],,,,,2,,,3h[4:1],,,,,3,,,4h[4:1],,,,,4,
{4}
5,5,6,6,7,7,8,8,
{1}
1-5[4:3],,
{2}
1,1,2,2,3,3,4,4,8,7,6,5,8,7,6,5,
{4}
8,8,8,,7,7,7,,6,6,6,,5,5,5,,
1,1,1,,2,2,2,,3,3,3,,4,4,4,,
5,5,5,5,
{8}
,3b,,,,
{16}
,8-4[1:2],
{1}
,,,,,,,,
E
&amsg_time=
&amsg_content=
&inote_3=
(140){1}
,,,,
{4}
1,2,3,4,5,6,7,8,
8^5[2:1],,,,1^4[4:1],,,4b,
1,1,2,2,3,3,4,4,5,5,6,6,7,7,8,8,
1,2,1,2,3,4,3,4,5,6,5,6,7-2[2:1],,,,
1,3,2,4,3,5,4,6,5,7,6,8,7,1,8,2,
1,7,8,6,7,5,6,4,5,3,4,2,3-6[2:1],,,,
1,1,1,1,7,7,7,7,1h[4:1],,3h[4:1],,5h[4:1],,7h[4:1],,
8,8,8,8,2,2,2,2,8h[4:1],,6h[4:1],,6,5,4,3b,
2,18,,18,,32,,32,,54,,54,,67,,67,,18,,81,,76,,67,,54,,54,,32,,32,
{8}
1,,1h[4:1],,,,,1,,,7h[4:1],,,,,7,,,3h[4:1],,,,,3,,,5h[4:1],,,,,5,
{4}
4,4,3,3,2,2,1,1,
{1}
8p5[4:5],,
{4}
1,1,2,2,3,3,4,4,5,5,6,6,7,7,8,8,
1,2,1,2,3,4,3,4,5,6,5,6,7,8,7,8,
7,6,8,5,1,4,2,3,7,6,8,5,1,4,2,3,
1,5,2,6,3,7,4,8,4,8,3,7,2,6,1,5,
8,7,6,5,
{8}
4,3b,,,,
{16}
,8-4[1:2],
{1},,,,,,,,,,
E
&amsg_time=
&amsg_content=
&inote_4=
(140){16}
8,,,1,,,2,,,3,,,4,,,5,,,6,,,7,,,8,,,1,,,2,,,3,,,4,,,5,,,6,,,7,,,8,,,1,,,2,,,3,,,4,,,5,
{4}
1,2,3,4,8,7,6,5,
1-4[8:1],,8-5[8:1],,4p1[2:1]/5q8[2:1],,,,
87,87,21,12,87,12,87,12,56,56,34,34,56,54,34,54,
87,87,21,12,87,12,87,12,56,56,34,34,1^4[2:1]/5^8[2:1],,,,
56,75,43,42,87,21,78,12,56,57,34,42,87,81,12,81,
76,68,32,13,76,23,67,23,76,68,32,13,8^5[2:1]/4^1[2:1],,,,
81,82,38,48,81,71,16,15,
{16}
8,,,1,,,7,,,2,,,6,,,3,,,5,,,4,,,6,,,3,,,7,,
{4}
54,64,74,84,45,53,52,15,
{16}
5,,,4,,,6,,,3,,,7,,,2,
{4}
8-4[4:1],,,2b,
5-8[8:1],,4-1[8:1],,6-2[8:1],,3-7[8:1],,
5-8[8:1],,4-1[8:1],,6-2[8:1],,3-7[8:1],,
5-8[8:1],,4-1[8:1],,6-2[8:1],,3-7[8:1],,
5-8[8:1],,4-1[8:1],,6-2[8:1],,3-7[8:1],,
{8}
8,1,2,,12,,,12,,,34,,34,,,34,,,56,,56,,,56,,,87,,87,,,87,
1h[8:1],,2h[8:1],,3h[8:1],,4h[8:1],,5h[8:1],,6h[8:1],,7h[8:1],,8h[8:1],,
1,2,3,4,5,6,7,8,1>8[2:1],,,,,,,,
{4}
87,87,21,12,87,12,87,12,56,56,34,34,56,54,34,54,
87,87,21,12,87,12,87,12,56,56,34,34,65,54,43,45,
5h[8:1]/6h[8:1],7h[8:1]/5h[8:1],4h[8:1]/3h[8:1],4h[8:1]/2h[8:1],
8h[8:1]/7h[8:1],2/1,7h[8:1]/8h[8:1],1h[8:1]/2h[8:1],
5h[8:1]/6h[8:1],5h[8:1]/7h[8:1],3h[8:1]/4h[8:1],4h[8:1]/2h[8:1],
8h[8:1]/7h[8:1],8/1,1/2,8h[8:1]/1h[8:1],
7h[8:1]/6h[8:1],6h[8:1]/8h[8:1],3h[8:1]/2h[8:1],1h[8:1]/3h[8:1],
7h[8:1]/6h[8:1],2/3,6h[8:1]/7h[8:1],2h[8:1]/3h[8:1],
7h[8:1]/6h[8:1],6h[8:1]/8h[8:1],3h[8:1]/2h[8:1],1h[8:1]/3h[8:1],
8^5[2:1]/4^1[2:1],,,,
{16}
1,,,2,,,3,,8,,,7,,,6-2[8:1],,5,,6b,,,1h[16:3],,,,,,1,,
{1}
1s5[1:2],,,,,,,,,,
E
&amsg_time=
&amsg_content=
&inote_5=
(140){16}
81,,,12,,,32,,,43,,,54,,,56,,,67,,,87,,,18,,,12,,,32,,,43,,,54,,,65,,,76,,,87,,,18,,,12,,,32,,,43,,,54,,,56,
5,,3,,5,1,,,52,,,1,5,,,3,5,,3,,5,,1,,5,,2,,5,,,,
48,,7,,46,,,,4/7h[16:1],,6,,4,,8,,
48,,8,,48,,8,,4/8-5[8:1],,8,,4^1[8:1]/8b,,,,
{4}
5-1[8:1],4q8[8:1],5^8[8:1],4-1[8:1],5q1[8:1],4-8[8:1],5-8[8:1],4^1[8:1],
5-1[8:1],4q8[8:1],5^8[8:1],4-1[8:1],5q1[8:1],4-8[8:1],5-8[8:1],4^1[8:1],
4-8[8:1],5-8[8:1],4p8[8:1],5^8[8:1],4-1[8:1],5q1[8:1],4^1[8:1],5-1[8:1],
4-8[8:1],5-8[8:1],4p8[8:1],5,
{16}
6,4,6,3,5,3,7,5,6,2,4,3,6,3,5,4,
{4}
6^1[8:1],4q8[8:1],5^8[8:1],3-1[8:1],6p1[8:1],4-8[8:1],5-8[8:1],3q1[8:1],
6p1[8:1],4q8[8:1],5^8[8:1],3-1[8:1],6^1[8:1],4-8[8:1],5-8[8:1],3q1[8:1],
4p8[8:1],6-8[8:1],3-8[8:1],5^8[8:1],4-1[8:1],6p1[8:1],4^1[8:1],5-1[8:1],
4q8[8:1],6-1[8:1],3q8[8:1],5,
{16}
7,5,6,2,4,3,6,4,5,3,5,4,6,3,7,2,
{12}
8b,7,6,1,1,1,2,2,2,3,3,3,
1b,2,3,8,8,8,7-4[8:1],7,7,7,,,
{16}
8h[16:1]/1h[16:1],,,1h[16:1]/2h[16:1],,,3h[16:1]/2h[16:1],,,
4h[16:1]/3h[16:1],,,5h[16:1]/4h[16:1],,,5h[16:1]/6h[16:1],,,
5h[16:1]/4h[16:1],,,
3h[16:1]/4h[16:1],,,3h[16:1]/2h[16:1],,,1h[16:3]/2h[16:1],,,2,,
{12}
4b,3,2,6,6,6,7,7,7,8,8,8,
5b,6,7,3,3,3,2-5[8:1],2,2,2,,,
{16}
4h[16:1]/5h[16:1],,,5h[16:1]/6h[16:1],,,6h[16:1]/7h[16:1],,,
8h[16:1]/7h[16:1],,,6h[16:1]/7h[16:1],,,56,
7,5,6,2,4,3,8,5,7,1,4,2,6,,7,,
{4}
5/1^4[8:1],5b/1,5^8[8:1]/1,5/1b,
6^1[8:1]/2,6/2b,6/2^5[8:1],6b/2,
7^4[8:1]/3,7/3b,7/3^8[8:1],7b/3,
8/4^1[8:1],8b/4,8^5[8:1]/4,8/4b,
5/1^4[8:1],5/1^6[8:1],5/1-5[12:1],5/1b,
8/4^1[8:1],8/4^7[8:1],8/4-8[12:1],8/4b,
6^1[8:1]/2,6^3[8:1]/2,6-2[12:1]/2,6b/2,
7/3^8[8:1],7/3^6[8:1],7/3-7[12:1],7b/3,
{8}
1-5[8:1],2,3-7[8:1],4,5,6-2[8:1],7,8,1-5[8:1],2,3-7[8:1],4,5,6-2[8:1],7,8,
8-4[8:1],7,6-2[8:1],5,4,3-7[8:1],2,1,8-4[8:1],7,6-2[8:1],5,4,3-7[8:1],2,1,
1,1,2,2,3,3,4,4,5,5,6,6,7,7,8,8,
{16}
1,1,2,2,3,3,4,4,5,5,6,6,7,7,8,8,
1,2,3,4,5,6,7,8,
{2}
1>5[12:1]/5<1[12:1],
{8}
5-1[8:1],5,4q8[8:1],4,5^8[8:1],5,4-1[8:1],4,
5q1[8:1],5,4-8[8:1],,5-8[8:1],5,4^1[8:1],4,
5-1[8:1],5,4q8[8:1],4,5^8[8:1],5,4-1[8:1],4,
5q1[8:1],5,4-8[8:1],,5-8[8:1],,4^1[8:1],4,
4-8[8:1],4,5-8[8:1],5,4p8[8:1],4,5^8[8:1],5,
4-1[8:1],4,5q1[8:1],,4^1[8:1],4,5-1[8:1],5,
4-8[8:1],4,5-8[8:1],5,4p8[8:1],4,5^8[8:1],5,
4-1[8:1],4,5q1[8:1],,4^1[8:1],,5-1[8:1],5,
6^1[8:1],6,4q8[8:1],4,5^8[8:1],5,3-1[8:1],3,
6p1[8:1],6,4-8[8:1],,5-8[8:1],5,3q1[8:1],3,
6p1[8:1],6,4q8[8:1],4,5^8[8:1],5,3-1[8:1],3,
6^1[8:1],6,4-8[8:1],,5-8[8:1],,3q1[8:1],3,
4p8[8:1],4,6-8[8:1],6,3-8[8:1],3,5^8[8:1],5,
4-1[8:1],4,6p1[8:1],,4^1[8:1],4,5-1[8:1],5,
4q8[8:1],4,6-1[8:1],6,3q8[8:1],3,5,5,
{16}
8,4,7,1,5,2,7,3,6,2,6,3,8,1,6,3,
5,1,6,2,7,3,8,4,8,4,7,3,6,2,5-1[12:1],1,6,2,5b,,,2h[16:3],,,,,,1s5[1:2],,
{8}1,1,1,1,{10}1,1,1,1,1,1,1,{9}1,1,1,{8}1,1,1,1,1,1,
{1},,,,,,,,,,,
E
&amsg_time=
&amsg_content=
