&title=Little Star
&artist=REDALiCE
&first=0
&des=SL1DE_
&lv_5=14
&des_5=SL1DE_
&inote_5=
(183){8},1b/2b,3,7b/8b,{16}6,5/4,3,6,2,7,{8}1/8,
{4}2b/7b,{8}4-2[8:1],5,4,{16}6,5,{8}7,2-8[8:1],
4,2,6,1-5[8:1],8,1,6,7,
4/6,{16}7,3,{8}6,1,8-4[8:1],1,{4}8,
{16}2/7,,,3/6,{8}4/5,1/8,{4}2b/7b,{16}4,5,3,6,
2,7,{8}1,8-6[8:1],4,{16}3/8,2,{8}1,5-7[8:1],{16}1,2,
{4}5/3-5[8:1],{8}3,7-1[16:3],1,2/7,{4}3,
{8}3/4,2,6/5,7,{16}1-5[8:1],8,2,7,{4}1,
{16}3/6,,,1-4[0.4098##0.1639]/8-5[0.4098##0.1639],,,{8}2/7,{4}1b/8b,2/7,
{8}8h[4:3]/3-6[4:1],3,{4}3,,2,
{8}5h[8:3]/4-1[4:1],4,{4}4,{8}6,7,8,1,
2h[4:3]/5-8[4:1],5,{4}5,,7,
{8}1/8,8/1,{4}7/2,{8}3/6,{16}1,8,{8}7/2,3/6,
2h[4:3]/5-1[4:1],5,{4}5,,7,
{8}8h[8:3]/1-5[4:1],1,{4}1,{8}7,6,5,4,
3h[4:3]/6-2[4:1],6,{4}6,,1,
{6}8/4b,7/3b,{3}6/2b,{24},,{8}6/2-5[8:1],1/7,
2/8,7,{16}6,3,{8}5,8/1,2/7,3/6-1[8:1],2/7,
1/6,2,{16}3,7,{8}4,3/5,2/6,7-4[8:1]/3-8[8:1],4/8,
{4}3/7,{8}5/1,2h[4:1]/6h[4:1],,,{4}4-1[8:1]/8-5[8:1],
4/8,{8}6/2,3h[4:1]/7h[4:1],,,4/6-1[8:1],3/5,
2/6,3,{16}8/4,7/3,6/2,5/1,{8}4/8,6/2-5[8:1],3/7,8/2,
7,{16}4/8,3/7,2/6,1/5,{8}4h[4:1]/8h[4:1],,,{4}4/8-3[8:3],
{6}5/8,6,{24},{8}7-4[0.8197##0.4918],{24},,,,,,,,,,,,{6}7/3,
2,{24},{8}1-4[0.8197##0.4918],{24},,,,,,,,,,,,{6}6/1,
7,{24},{8}8h[8:21],,,,,5-1[0.4918##0.1639],
,,5,{32},,,,,,,,1b,2,3,4,5,6,{16}7,
{32}1,2,3,4,5,6,{16}7,{32}1,2,3,4,5,6,{16}7,{32}1,2,3,4,5,6,{16}7,{32}1,2,3,4,5,6,{16}7,
{4}1b,4-1[8:1]/5-8[8:1],4/5,2/7,
{8}4-2[8:1],6,4-6[8:1],7,4-8[8:1],8-2[8:1],4,6,
7,8-6[8:1],2,8-2[8:1],3,8-4[8:1],4-6[8:1],8,
3,2,1-3[8:1],7,1-7[8:1],6,1,5,
{32}1,2,3,4,5,6,7,8,1,2,3,4,5,6,7,8,{8}1/5,6/2,7/3,4/8,
1-6[8:1],5-2[8:1],1,5,8-5[8:1],4,8-3[8:1],3>5[4:1],
8,4-8[8:1],4-7[8:1],4-1[8:1],,,,6h[8:7],
2h[4:3],,,,,,,3/7b,
,4/8b,{32},,,,1b/5h[24:5],2,3,4,,6,7,8,1,2,3,4,5,6,7,8,{8}1/5,
8/4,3/7,8/2,7/1-6[8:1],8,3/1-4[8:1],2,1<7[8:1],
8,1-6[8:1],2,1-5[8:1],3,1,4,4>2[8:1],
6,4-1[8:1],7,4-8[8:1],8,4,5,{32}5,6,7,8,
1,2,3,4,5,6,{16}7h[16:7]/3h[16:7],,,,,,,,,,,,,{8}6/8b,
1/5b,,4/2b,{4}1/5b,{8}6/2b,3/7b,
,7/3,6/2,1/5,{4}8/4,{8}8-4[2:1],8h[8:5],
,,,,,,{4}1-6[4:1],
6-3[4:1],3-7[4:1],7-4[4:1],4-1[4:1],
{1}8h[4:3],
{4}3/6h[4:3],,,4h[4:1],
{2}1h[2:1],8h[2:1],
{4}7h[4:1],6h[4:1],5h[4:1],4h[4:1],
{2}3h[2:1],1h[2:1],
{4}6h[4:3],,,4h[4:1],
{2}2h[2:1],1h[4:5],
{8}8h[4:3],{16},,,,,,,,,,,,1/8,2/7,
{8}3/6,1/8,,2/7,{4}2/7,{16}6,3,{8}5,
2>4[0.1639##0.1639],2,8-4[0.1639##0.1639],8,1-5[0.1639##0.1639],1,6>4[0.1639##0.1639],6,
3>1[0.1639##0.1639],3,6-8[0.1639##0.1639],6,4-2[0.1639##0.1639],4,7-3[0.1639##0.1639],7,
2-6[0.1639##0.1639],2,1-5[0.1639##0.1639],1,8-4[0.1639##0.1639],8,7-3[0.1639##0.1639],7,
5-1[0.1639##0.1639],5,6-2[0.1639##0.1639],6,3-7[0.1639##0.1639],3,8-4[8:1],8,
8b/1-5[8:1],1,1/7-3[8:1],7,7/2-6[8:1],2,2/8<5[8:1],8,
8b/1>4[8:1],1,1/7-5[8:1],7,7/2-4[8:1],2,2/5<5[4:7],5,
{1}5b/1h[1:2],
{4},,,,5b,
5-8[8:1]/4-1[8:1],4b/5b,2/7,
{8}1/2-5[8:1],8,7/2,6,{16}7,4,8,3,{8}1,2/8,
1/7-4[8:1],2,3/7,3,{16}2,5,1,6,{8}8,7/1,
1/7,{16}8/2,3,4,5/6,7,8,{8}1/2,3/4,7/8,{16}1,5,
2,6,1,7,2,6,1,5,{8}2,4/3,2/5,1/6,
8/7<4[8:1],1,2/7,3,{16}2,5,1,6,{8}8,7/1,
8/2>5[8:1],7,6/2,6,{16}7,4,8,3,{8}1,8/2,
{4}1/7-3[8:1],{8}2/7,1,,1-3[8:1]/8-6[8:1],,1-5[8:1]/8-4[8:1],
,1-3[8:1]/8-6[8:1],,1b/8b,{16},,4,5,3,6,2,7,
{8}8/1v6[8:1],2,1/3,4,{16}5-1[8:1],6,5,7,{8}5,8,
2/7v4[8:1],8,7/1,2,{16}3-7[8:1],5,3,6,{8}3,8,
6,3/5,{16}2/6,1,8,7,6,5/1,4/8,3/7,2/6,5/1,{8}4/8,
{16}1,5,2,6,3,7,4,8,3,7,{8}2,1/5-1[8:1],2/6,
1/5b,2-7[8:1],,8/2b,{4}6-1[8:1],{8}3/6b,4-7[8:1],
,1/4,8,1,{4}2,{8}1-5[2:1],1h[8:5],
,,,,,,{4}7-2[4:1],
2-5[4:1],5-8[4:1],8-4[4:1],4-7[4:1],
{1}1h[4:3],
{8}7/4,3/6,{16}2/5,6,{8}3/7,2/6,8,7/1-6[8:1],1,
6/1-4[8:1],5,4/1<6[8:1],5,6/1>4[8:1],5,{4}4/1,
{16}8b,7,6,1b/5,2,3,6b/4,7,5b/8,4,3,1b/2,8,7,3b/6,2,
8b/1,7,6,1b/5,,,{8}3b-6[8:1]/7b-2[8:1],{2}5b/1b,
{16}1,5,3,7,2,6/3,4,5,6,7,8,1/5,2/6,3/7,{8}4/8,
1b/5b,8,3b/7b,2,{32}1b,2,3,4,5,6,7,8,{4}1/5b,
{16}1,7,2,6,3,5,4,6,2,8,3,7,1,5,3,6,
2-5[0.4918##0.1639],,,8-5[0.4098##0.1639],,,{8}2,{2}8,
E
