&title=Night! Night! Night!
&artist=MM
&first=-0.6
&des=Yume"Saki"
&lv_5=14
&inote_5=(165){1},
{8}Chf[2:1],,E8,,B6,,5<4[4:3],,
B3/B4/E4,,B1/B8/E1,,B5/B6/E6,,,,
{32}8x,7x,6x,5x,,,,,1x,2x,3x,4x,,,,,7x,6x,5x,4x,,,,,2x,3x,4x,5x,,,,,
{16}6,5,6,5,7,,3,4,3,4,2,,{32}1x,2x,3x,4x,5x,6x,7x,8x,
{16}1xh[4:1],,,,
{8}5,,5,,5<4[4:2],,4b,,3b,,2b,,6,6,
{16}37,,37,,2,4,,4,3,,3,5,,5,4,,62,,62,,7,5,,5,6,,6,4,,4,5,,
45,,,,45,,,,45,,34,,23,,12,,1z5[2:1]/8z4[2:1],,,,,,,,,,,,,,,,
{16}35,,4,4,2,6,2,6,1,2,3,4,1,8,7,6,
53,,4,4,7,5,7,5,8,7,6,5,8,1,2,3,
4/7-5[8:1],,8,,4-2[8:1]/7,,3,,4/5-1[8:1],,6,,4/5,,,,
8,7,6,5,43,2,1,8,4,5,6,7,81,2,3,4,
5/7,,6,6,3,7,3,7,4,3,2,1,4,5,6,7,
82,,1,1,6,2,6,2,5,6,7,8,5,4,3,2,
1/6-8[8:1],,7,,1-5[8:1]/6,,2,,1/8-4[8:1],,7,,1/8,,,,
3,4,2,6,5,7,3,4,2,6,5,7,1b-5[8:1]/8b,,,,1q3b[4:2]/5q7[4:2],,
{8},,,,,,,4-2[8:1],,5,,8-6[8:1],,1,,4>1[8:1],,5,,8<5[8:1],,1,,34,3,35,3,36,6,46,,
2h[8:1]/3h[8:1],,7h[8:1]/6h[8:1],,18,18,18,,34,3,32,3,
{16}6,5,7,7,3,4,2,2,
{8}5,5,64,6,68,6,63,3,35,3,31,3,
{16}7,7,5,6,2,2,4,3,Chf[4:1],,,,
E1/B1/B8,,,,E7/E3/C,,,,E5/B4/B5,,,,
3-5[8:1]/7-1[8:1],,,,3-1[8:1]/7-5[8:1],,,,37,,,,37,,5-2[8:1],,
4,,5-8[8:1],,6,,1,,,,2-4[8:1],,7,,7,,
8-6[8:1]*-5[8:1],,,,8-2[8:1]*-3[8:1],,,,8,,,,4,,4<7[8:1],,
5,,4>1[8:1],,3,,4,,,,7-4[8:1],,1,,1,,
1b-5[8:1],,,,1<6[8:1]/5>2[8:1],,,,1-5[8:1]/5,,,,1,,8<5[8:1],,,,8-4[8:1],,2,,8,,,,7-3[8:1],,3,,3,,2bh[4:1],,,,1,,1,,3,,24,,6,,57,,4-2[8:1],,5,,6,,7,,8w4[8:1],,1,,8b,,,,{16}17,,8,8,3,7,3,7,4,3,2,1,4,5,6,7,
82,,1,1,6,8,6,8,5,6,7,8,5,4,3,2,
1/6-8[8:1],,5,,1-3[8:1]/6,,2,,1/8-4[8:1],,7,,1/8,,,,
5,6,7,8,12,3,4,5,1,8,7,6,54,3,2,1,
8/6,,7,7,2,6,2,6,1,2,3,4,1,8,7,6,
53,,4,4,7,3,7,3,8,7,6,5,8,1,2,3,
4/7-5[8:1],,6,,4-8[8:1]/7,,3,,4/5-1[8:1],,6,,4/5,,,,
3,4,2,6,5,8,3,4,1,6,5,7,2b,,,,
6,,6,,3,,3,,6,5,7,7,3,4,2,2,
6,,6,4,6,,6,,64,,6,3,6,,6,,
46,,4,5,4,,6,,3,4,2,2,6,5,7,7,
2,,3,4,3,,25,,18,,6,5,6,,4x/7x,,3,,3,,6,,6,,3,3,5,4,7,7,5,6,
3,,3,,6,,6,,3,,34,,6,,56,,3,,24,,6,,75,,6,6,4,5,2,2,4,3,
5,,,,B4/B5/E5,,,,E7/B6/B7/Cf/B2/B3/E3,,,,B1/B8/E8/E2/E1,,,,
3>1[8:1]/7<5[8:1],,,,3<5[8:1]/7>1[8:1],,,,37,,,,37,,5-2[8:1],,
4,,5-8[8:1],,6,,1,,,,3,,8,,8,,
7>1[8:1]/3<5[8:1],,,,7<5[8:1]/3>1[8:1],,,,37,,,,1,,4-7[8:1],,
5,,4-1[8:1],,3,,4,,,,7-4[8:1],,1,,1,,
1b-5[8:1],,,,1<6[8:1]/5>2[8:1],,,,5-1[8:1]/1,,,,5,,2>5[8:1],,,,2-6[8:1],,8,,8,,,,7-3[8:1],,3,,3,,2b,,18,,7,,65,,4,,35,,6,,57,,4-2[8:1],,5,,6,,7,,8w4[8:1],,1,,8b,,,,{16}26,,26,,3,4,,2,1,,3,5,,2,8,,
3b/7b,,3b/7b,,6,5,,7,8,,6,4,,7,1,,
2bx/6bx,,2bx/6bx,,3,4,,2,1,,5,6,,8,7b,,,,,,
C,,,,E2/E3,,,,E7/E8,,,,2-4[8:1]/5,,,,2-8[8:1]/7,,,,2/5,,,,6,,6h[4:1],,,,2,,6,,6,,1-5[8:1],7,2,8,1,,8,,
1<6[8:1]/5>2[8:1],,,,1q5[8:1]/5q1[8:1],,,,15,,,,37,,5-2[8:1],,
4,,5-8[8:1],,6,,1,,,,3,,24,,24,,
1>4[8:1]/5<8[8:1],,,,1p5[8:1]/5p1[8:1],,,,15,,,,2,,4-7[8:1],,
5,,4-1[8:1],,3,,4,,,,78,,6,,6,,
4b/5b,,3,,1b/2b,,8,,7/5-2[8:1],,5,,8,,8bh[8:4],,
{32}E1,E8,E7,E6,E5,E4,E3,E2,1bxh[4:1],,,,
{16},,,,8b,,7b,,6b,,
{32}1x,2x,3x,4x,,,,,2x,3x,4x,5x,,,,,8x,7x,6x,5x,,,,,7x,6x,5x,4x,,,,,1x/5x,2x/6x,3x/7x,4x/8x,,,,,1x/5x,8x/4x,7x/3x,6x/2x,,,,,8x/4x,1x/5x,2x/6x,3x/7x,,,,,8x/4x,7x/3x,6x/2x,5x/1x,,,,,
{16}78,,6,,45,,3,,12,,12,,78,,78,,6,5,7,,2,8,3,6,1s5[8:1],7,4,5,1b,,,,34,,2,,18,,7,,3,4,2,4,3,5,3,,46,,8,,35,,1,,6,5,7,5,6,4,6,,34,,34,,25,,25,,46,,46,,37,,37,,2,8,4,5,1,7,3,6,2,8,4,6,1b,,,,7,,7,,,,7,,7,,7,,7h[8:7],,,,4b,,4b,4b,,4b,,4bw8[8:1],,4b,4b,
