&title=HAELEQUIN
&artist=orangentle
&first=0
&des=
&whole_bpm=167
&clock_count=4
&demo_seek=104.910
&demo_len=21.557
&des_5=the clown of 24 gtdds
&lv_5=14
&inote_5=(167){4},,,,
,,,,{8}
6-1[8:1],,5,5-2[8:1],,6,6^1[8:1],,
5,5^2[8:1],,7,7-2[8:1]*-4[8:1],,7,,
5/3-8[8:1],,4,4-7[8:1],,3,3^8[8:1],,
4,4q1[8:1],,2,2^5[8:1]*^7[8:1],,,,
6,5,47,5,6,5,47,6,
5,4,36,5,4,5,36,4,
5,3,25,3,4,3,25,3,
{4}4-7[8:1]*-8[8:1],4b<4[4:5]*>4[4:5],,,
,,,,{8}
6,65,,6h[4:1]/5,,5,56,4,
3,34,,3h[4:1]/4,,4h[16:1],{16}4,3,5,3,
6h[4:1],,,,,5,6,5,7,,6,,5,,4,,
3pp7[2:1],,,2,,,1h[8:3],,,,,,,,2,3,
4h[4:1],,,,,,4,5,3,,2,,1pp5[2:1],,8,,
7h[2:1],,,,,,,,,,7,,6,,5,,
4h[8:1]/3h[8:1],,,5h[8:1]/6h[8:1],,,2h[4:1]/3h[4:1],,,,,,4,,5,,
6h[8:1]/4,,5,7,4,,8h[4:1]/3h[8:3],,,,,,,,2,1,
3>7[4:1],,,,,,5,,5h[16:3],,,6h[16:3],,,7h[8:1],,
8-5[8:1]*-3[8:1],,,,8bV64[4:1]*V24[4:1],,,,,,,,,,,,
2h[4:1]/6,,,,,4,3,5,2,,1,,87,,6,,
5qq1[2:1]/4,,,6,,,7h[4:1],,,,,,8,,8,,
7-3[8:1]/1,,,8,,,1,,2^5[8:1]/8,,,1,,,8,,
7V51[4:1]/1,,,,,,,,4w8[8:1],,,,4,,,,
2pp8[2:1]/6h[4:1],,,,,,7,,8,,7,,6,,5,,
4h[16:3],,,6q1[16:5],,,8h[8:3],,,,,,,,7,8,
7^2[8:1],,,6,,,5,,4^7[8:1],,,3,,,2,,
1qq5[2:1]*pp5[2:1],,,,1,,,,,,,,,,,,
46,,3,4,3,4,3,4,2,,6,5,6,5,6,5,
7,,3,4,2,4,3,4,2,,6,5,{24}7,8,1,4,3,2,{16}
6,,3,4,2,4,1,4,8,,7,,6-1[8:1],,5,,
6/4-8[8:1],,,,4/5-1[8:1],,,,5/3-8[8:1],,,,34,,,,
1,2,3,4,1,8,7,6,4,3,2,1,5,6,7,8,
2,3,4,5,8,7,6,5,{24}2,3,4,5,6,7,{16}81,,,,
3,6,4,6,5,6,7,6,8,1,2,3,5,6,7,8,
2V48[4:1],,,,,,7,6,5-1[8:1],,,,,,,,
3qq7[4:3],,7,,,8,,,7,,,6,,,5,,
,,2h[16:3],,,3h[16:3],,,4h[16:3],,,5h[16:3],,,6,,
7qq3[4:3],,5,,,4,,,3,,,2,,,1,,
,,7h[16:3],,,6h[16:3],,,5h[16:3],,,4h[16:3],,,3,,
4qq1[4:3],,5,,,5,,,6,,,6,,,7,,
7qq1[4:3],,2,,,2,,,3,,,4,,,5,,
5-2[8:1]*-1[8:1],,,,,,,,4-8[8:1]*-7[8:1],,,,,,,,
5-1[8:1]/4-2[8:1],,,,54,,,,5-7[8:1]/4-8[8:1],,,,45,,,,{12}
1,2,3,8,7,6,2,3,4,7,6,5,
3,4,2,6,5,7,3,4,1,6,5,8,
2,4h[24:1],8h[24:1],6,4h[24:1],2h[24:1],6,8h[24:1],4h[24:1],6,2h[24:1],4h[24:1],
2,1,3,7,8,6,2,1,4,7,8,5,{16}
4,,3v8[8:1]/5,,2,4,3,,,,7v4[8:1],,6,8,7,,
,,1-5[8:1],8,2,,1,,,,6-1[8:1]/4-8[8:1],,73,,46,,
,,2^7[8:1]*p6[8:1],1,3,,2,,,,5-8[8:1]*v2[8:1],4,6,,5,,
,,1w5[8:1],8,2,,1,,,,73,,8-5[8:1]/2-5[8:1],,,,
8b/2b,,,,4,3,7,6,3,2,6,5,2,1,5,4,
1<1[2:1]*>1[2:1],,,,,,,,,,,,,,,,
3h[1:1]/7V51[4:3],,,,,,,,,,,,,,,,
,,2,,3,,4,,57,57,,46,,,35,,
2/4pp8[4:3],,,,,,,,,,,,,,{24}1,2,3,{16}
4-8[8:1],,,,,,,,17,17,,26,,,35,,
6h[1:1]/4<2[4:3],,,,,,,,,,,,,,,,
,,5,,6,,7,,8,8h[8:1],,2h[16:3],,,4,,
4-6[8:1]*-7[8:1],,,,,,,,4-2[8:1]*-1[8:1],,,,,,,,
4^1[8:1],,,,8-5[8:1]*-3[8:1],,,,8,,,,4,6,4,6,
37,,,2,2/4-8[8:1],,3,,4/1-6[8:1],,2,,1/4-8[8:1],,3,,
4/1-6[8:1],,2,,14,,3,,24,24,,35,,,26,,
62,,,7,7/5-2[8:1],,6,,5/8-4[8:1],,7,,8/5-2[8:1],,6,,
5/8-4[8:1],,7,,85,,6,,75,75,,64,,,73,,
73,,6,5,6,,74,,63,,2,4,3,4,2,,
15,,2,4,2,,35,,46,,7,5,7,5,8h[4:1],,
,,1,8,1^4[8:1],,7,7,1,,6,6,5-1[8:1],,7,7,
5,,8,8,2-6[8:1],,3,3,2,,4,4,8-4[8:1],,{24}5,6,7,{16}
8bw4[4:3],,,,,,,,,,,,,,,,
,,,,2b^5[8:1]/6b^1[8:1],,,,2b-7[8:1]/6b-3[8:1],,,,2b/6b,,,,
8,1,2,3,7,6,5,4,1,2,3,4,8,7,6,5,
2,,3,5,4,6,5,7,4,8,3,8,2,8,1,8,
2,,1,8,1,2,3,4,8,7,6,5,{24}3,4,3,{16}4,,
25,,,47,,,56,,5,6,4,6,3,6,2,6,
1,2,3,4,8,7,6,5,2,,3,,45,,6,,
37,,,,3,5,2,4,1,,2,,38,,7,,{24}
36,,,3,4,5,2,3,4,1,2,3,4,,,6,5,4,7,6,5,8,7,6,
5,,,3,4,5,2,3,4,1,2,3,{16}5,4,5,4,6,3,6,3,
7,5,7,5,6,4,5,3,4,2,4,2,5,1,6,2,{24}
7,,,2,3,4,5,,,7,6,5,4,,,1,2,3,4,,,8,7,6,{16}
2,3,4,5,8,7,6,5,1,2,3,4,7,6,5,4,{24}
2,,,7,6,5,2,3,4,7,6,5,3,,,8,7,6,3,4,5,8,7,6,{32}
2b,3,4,5,2,3,4,5,1,2,3,4,1,2,3,4,{16}8,7,1,6,2,5,3,3,{32}
7b,6,5,4,7,6,5,4,8,7,6,5,8,7,6,5,{16}1,2,8,3,7,4,6,5,
74,,,,5,,6h[8:3],,4,,,,5,,,,
34,,,,5,,2h[8:3],,4,,,,5,,,,
64,,,,5,,7h[8:3],,4,,,,5,,,,
24,,,,5,,{24}3,4,,,6,5,,,,{16}4,6,3,7,{24}
2,3,4,8,7,6,1,2,3,7,6,5,2,3,4,8,7,6,1,2,3,7,6,5,
2,3,4,1,2,3,7,6,5,8,7,6,2,3,4,1,2,3,{16}8,,2b/6b,,
3,5,3,5,4,6,4,6,3,5,3,5,2,6,2,6,
3,7,3,7,4,8,4,8,{24}3,2,1,87,6,5,{32}41,8,7,6,51,48,37,26,{4}
1-5[8:1]/5,1b/7h[4:10],,,
,,{16},,{32},{16},3,2,1h[32:29],{32},,,{4}
,,,,
,,,,
,,,,
,,,,E,
