&title=Reign Ignition
&artist= 曲:BlackY/歌:逢坂 茜(CV:大空 直美)
&first=0.01
&des=Akane様
&lv_5=14
&inote_5=(162)
{1}
,
{4}
1,
{24}
2,,,,
{96}
3,,,,,5,,,
{16}
4,6,2,8,3,5,1,7,
{16}
2-5[16:1],,,2/6-4[16:1],,,6/3-8[12:1],,,,35,,,,7,6,
{16}
5-8[16:1]/1,,,5/2-4[16:1],,,2/7-3[12:1],,,,5/7,,,,1,8,
{4}
2p7[8:12]/7<2[16:16],2b/7b,,,
{4}
,,,,
{16}
6h[16:3]/5,,,8,,,17,,3h[16:3]/4,,,1,,,28,,
{4}
1/7h[4:1],
{24}
1,2,3,4,5,6,
{32}
7-3[12:1],8,1,2,3,4,5,,
{4}
7b,
{8}
4h[8:1],5,6h[8:1],5,
{16}
3-5[16:1],,,7-3[8:1],,,1,,
{8}
2,2,5h[8:1],3,6-1[8:1]*-2[8:1]/4,,6,,
{8}
3h[8:1],4,5h[8:1],3,
{16}
2-6[16:1],,,7-1[12:1],,,5,,
{8}
4,4,4p8[8:1]/8p4[8:1],,8<1[4:1]/4,,,,
{4}
8b-5[12:1]*-3[12:1],8b,5b-8[12:1]*-2[12:1],5b,
{16}
1h[8:1]/8,,,7h[16:3],5,,5,,4h[16:3]/6,,,8h[16:3],,,2h[16:2],,
{8}
4<8[16:7],,3,3,
{16}
,,2,,2,,8,1,
{16}
,2,7,,3h[4:1],,
{24}
5,6,7,
{16}
8h[8:1],,2-4[12:1],,1,,2,,
{8}
,6qq8[4:1],4,6/3h[4:1],,,12,12,
{4}
3-7[12:1]/8,3/8<5[12:1],1-5[12:1]/8,1b/5b,
{8}
,3pp1[4:1],5,3/6h[4:1],,,78,78,
{4}
6-3[12:1]/1,6/1>4[12:1],8-4[12:1]/1,8b/4b,
{16}
2V48[32:7],,,4,24,,6,,7V51[32:7],,,5,75,,3,,
{8}
2-4[12:1],2,8-6[12:1],8,
{16}
5h[8:1],,,4h[8:1]/5,,,36,,
{32}
2/7pp2[4:6],63,54,,
{8}
,
{4}
,,,
{4}
3b,4b,5b,6b,
{8}
7,7h[8:1],
{16}
5h[8:1],,6,6,
{24}
4,3,2,18,7,6,
{4}
2b<8[12:1]/5h[4:1],
{16}
2V48[32:7],,4,4,2,,6,,
{16}
7h[16:3],,5-1[12:1],5,,,5/2-6[8:1],,
{16}
,,2V41[4:1],,8,,1-5[8:1]/2,,8,,,,7,,7,6,
{16}
5-8[12:1]/3,,1,2,35,,3,,
{8}
2-6[12:1],6,2,8-4[12:1],
{16}
,,83,,2,,
{24}
14,25,36,
{4}
4-8[12:1]/7-4[12:1],4b/7b,
{4}
1w5[12:1],1b,
{16}
3h[8:1],,5-1[12:1],4,,,5/7<4[8:1],,
{16}
,,78,,1,,2h[8:1],,
{24}
5b,6,7,
{16}
,
{24}
1b,2,3,
{16}
,
{24}
8b,7,6,
{16}
2-5[12:1],,1,,2/6-2[16:1],,7,,3-7[16:1]/6b,,,3b/8-4[16:1],,,8bpp3[8:5]*qq5[8:5],,
{4}
,,,,
{16}
6h[16:3]/4,,,3,6h[8:1],,3,,6h[16:3]/3,,,2,6h[8:1],,2,,
{16}
6h[16:3]/2,,,1,6h[8:1],,8qq5[16:6],,,,8/1,,,,,,
{16}
4h[16:3],,,6,4h[8:1],,6,,4h[16:3]/6,,,7,4h[8:1],,7,,
{16}
4h[16:3]/7,,,8,4h[8:1],,8,,8,4,8,3,8,2,8,1,
{16}
7-5[16:1],,,8/7,,,1,,2-4[16:1],,,12,,,8,,
{16}
3h[8:1]/7h[8:1],,,2h[8:1]/6h[8:1],,,1h[8:1]/5h[8:1],,,,1,2,3,4,7,6,
{16}
54,,,4/3-6[16:1],,,2,,1,,,8/7-3[16:1],,,6,,
{4}
5<8[12:1],5b/2>5[12:1],7p4[4:1]/2b,7b/4b,
{8}
1s5[4:1],,6h[16:1],6h[16:1],7-4[8:1],,3h[16:1],3h[16:1],
{4}
2>6[4:1],6V41[4:1],1h[64:1],8h[64:1],
{16}
27,,6h,5h,6h,5h,6h,,17,,3h,4h,3h,4h,3h,,
{4}
7p1[4:1],1<4[12:4],2>4[12:1],2,
{8}
4h[16:1]/5h[16:1],6h[16:1]/5h[16:1],7h[64:1],7h[64:1],1/8-5[12:1],,2h[64:1],2h[64:1],
{8}
1-4[12:1]/8,,7h[64:1],7h[64:1],6-3[12:1],,3,,
{4}
2qq7[4:3],
{8}
,5,6h[4:1],,,,
{4}
6,56,45,34,
{16}
2-4[12:1]/4,,,,1/2,,,,5h[16:1]/6h[16:1],,,6h[16:1]/7h[16:1],,,8h[16:1]/7h[16:1],,
{4}
8/1-5[8:1],12,
{16}
4h[16:1]/6h[16:1],,,3h[16:1]/7h[16:1],,,8h[16:1]/2h[16:1],,
{16}
7-5[12:1]/1,,,,8/7,,,,4h[16:1]/3h[16:1],,,3h[16:1]/2h[16:1],,,1h[16:1]/2h[16:1],,
{4}
1/8-4[8:1],87,
{16}
5h[16:1]/3h[16:1],,,6h[16:1]/2h[16:1],,,1h[16:1]/7h[16:1],,
{4}
8<3[4:3],,,,
{4}
1V36[4:2],,,,
{16}
5h[16:1]/7h[16:1],,,1h[16:1]/8h[16:1],,,2h[16:1]/4h[16:1],,5h[16:1]/6h[16:1],,,1h[16:1]/8h[16:1],,,3h[16:1]/4h[16:1],,
{16}
5h[16:1]/7h[16:1],,,1h[16:1]/8h[16:1],,,2h[16:1]/4h[16:1],,
{8}
3h[8:1],1h[8:1],8h[8:1],6h[8:1],
{4}
5b-1[4:2],,,,
{4}
2-4[12:1]/6-8[12:1],26,3-8[12:1]/7-4[12:1],37,
{4}
2h[4:5],4,
{8}
5,5,
{16}
6,6,,,
{4}
7,
{8}
8,8,
{16}
1-5[12:1],8,2,7,
{4}
1,
{4}
1b/7b,
{16}
2,3,4,5,1,2,3,4,8,1,2,3,
{16}
6,4,6,5,6,7,6,8,6p4[4:1],1,6,2,,,,,
{16}
1,2,3,4,1,8,7,6,45,3,2,1,5,4,3,2,
{16}
15,8,7,6,4,5,3,4,2,3,4,5,7-4[12:1],8,6,1,
{4}
7b,
{16}
2,5,2,7,3,6,5,6,3,4,2,5,
{16}
1,7,3,5,2,1,3,7,2,8,5,6,8,7,1,6,
{16}
2,4,3,7,5,6,1,8,2,4,3,7,5,6,4,5,
{16}
2,7,2,7,
{24}
1,8,1,8,1,8,
{16}
2,3,48,7,61,2,37,6,
{16}
5bqq2[8:3]/4b,,,,5/6-8[12:1],,,,6,,,,81,2,3,4,
{16}
5/7qq4[8:3],,,,3-1[16:1]/7,,,,3<6[8:1],,,,
{8}
2,2,
{16}
1v6[12:1]/5,8,7,6,15,4,3,2,1/5v2[12:1],4,3,2,51,8,7,6,
{16}
3,5,3,5,4,6,4,6,3,7,3,7,2-4[32:3],8V62[32:7],1,7,
{16}
,,,,5>1[16:3],,,,1V35[4:1]/5,8,7,6,5,6,7,8,
{16}
1-5[12:1],2,3,4,15,6,7,8,1/4h,2,3,4/7h,5,6,7/3h,8,
{4}
1-5[4:2]/2z6[16:22],,,,
{8}
,5-2[8:1],,,,1-5[10:1],4,1,
{8}
,7pp3[16:5],5,7/4,,,2>5[10:1],2,
{4}
7>2[10:1]/2b,7b/4<7[10:1],1>4[10:1]*-5[10:1]/4b,1b,
{8}
,2qq6[16:5],4,2/5,,,7<4[10:1],7,
{4}
2<7[10:1]/7b,2b/5>2[10:1],8<5[10:1]*-4[10:1]/5b,8b,
{8}
35,4qq8[16:5],35,,6,,7-4[12:1],7,
{4}
1-6[12:1]/7b,3-8[12:1]/1b,3b/5-2[12:1]*-8[12:1],5b,
{8}
1-6[8:1],2,2,2,
{16}
3,6,5,6,2,5,4,5,
{4}
1b-5[12:1],1b>3[12:1]*<7[12:1],1bw5[10:1],1b,
{16}
7V51[32:7],,,5,75,,3,,2V48[32:7],,,4,24,,6,,
{8}
7-3[8:1],7,1-5[8:1],1,
{16}
6h[16:3],,,8-4[16:1],,,28,,
{4}
2qq7[4:6],,,,
{4}
6b,5b,4b,3b,
{8}
2,2h[8:1],4h[8:1],
{16}
3,5,4,6,3,3,
{8}
7,18,
{24}
2,3,4,
{8}
6/5h[8:1],
{24}
8,7,6,
{8}
3/5h[8:1],
{32}
1-5[12:1],2,3,4,1,8,7,6,
{4}
1,
{4}
3b>5[16:7]/6b<4[16:7],,,
{8}
,2b/7b,
{8}
,1bpp4[16:5]/8bqq5[16:5],1b/8b,1b/8b,,,,
{16}
2,3,
{16}
4/8-4[12:1],,7,6,5/8b,,6,5,8-4[12:1],,7,,6/8b,,5,,
{16}
6h[8:1],,1,8,72,,
{24}
18,27,36,
{4}
4-8[12:1]/5-1[12:1],5b/4b,
{4}
1>4[12:1]/8<5[12:1],1b/8b,
{16}
2h[8:1],,4-1[12:1],3,5,,6<1[8:1]/4,,
{16}
,,16,,2,,3h[8:1],,
{24}
8b,7,6,
{16}
,
{24}
2b,3,4,
{16}
,
{24}
7b,6,5,
{8}
8-4[12:1],1,2-5[12:1],1,
{16}
6-1[16:1],,,3<8[16:3]/6,,,3b/8>5[16:3],,
{8}
,,7,7,
{24}
8b,1,2,3,4,5,6/2b<8[12:1],,,,,,
{16}
2V48[32:7],,4,4,2,,6,,
{16}
7h[16:3],,5-1[12:1],5,,,5/2-6[8:1],,
{16}
,,2V41[4:1],,8,,1-5[8:1]/2,,8,,7,7,,,28,37,
{16}
4b/6b,,17,26,3b/5b,,35,,
{16}
2-6[12:1],,3,5,
{8}
2,8b<5[12:1]*>3[12:1],
{8}
,8bz4[8:1]*s4[8:1],,8b,,{24}
15,26,37,
{4}
4-1[12:1]/8-5[12:1],
{4}
4b/8b,
{16}
2-5[12:1]/6,,1,8,2,,7<4[12:1],,18,,7b/3>8[8:1],,
{16}
,,3/4,,5,,6h[8:1],,
{32}
8b,1,2,3h[32:3],,,1b,8,7,6h[32:3],,,2b-6[16:3],37,48,51,
{8}
,8,8,8,
{16}
7,5,6,4,5,3,4h[8:1],,
{8}
8-4[16:2],2,2,2,
{16}
1,5,2,6,3,7,4h[16:1],,
{16}
8,5,6,6,1,4,2,2,3-8[16:1]/7-4[16:1],,,37,,,2bpp5[4:2]/6bpp1[4:2],,
{128}
,,,,,,,,,,,,,,,,,,,,,,,,,,,,,,,,,,,,,,,,,,,,,,,,,,,,,,,,,,,,,,,,,,,,,,,,,,,,,,,,,,,,,,,,,,,,,,,,,,,,,,,,,,,,3,,,,,,,,,,3,,,,,,,,,,4,,,,,,,,,,4,,,,,,,,,,,,5,,,,,,,,,,5,,,,,,,,,,,6,,,,,,,,,,,,6,,,,,,,,,3h[128:21],,,,,,,,,,,6,,,,,5,,,,,4,,,,,,,,,,,
(97)
{8}
2<7[16:41],
{256}
,,,,,,,,,,,,,,,,,,,,,,7,,,,,6,,,,,
(177)
{8}
5b/2b,5,5,5,3,3,3,3,
(250)
{8}
6,6,2,2,7,7,
(168)
{16}
3,6,3,6,3,6,3,6,3,6,3,6,3,6,
(157)
{16}
3,6,3,6,3,6,3,6,3,6,3,6,3,6,2h[64:51],,,,,,,,,,,,,,,,,,,,,,6,5,4,
