&title=VECTOЯ
&artist=WHITEFISTS
&first=0
&des=KIЯA
&lv_5=14+
&inote_5=(200)
{1},5-8[2:7]*-2[2:7],,,,
{16}1,1,1,1,1w5[8:1],,28,,1b,,,,37,,1-4[8:1]/5-8[8:1],,,,15,,,,
{8}26,17,35,4qq1[4:7]/8qq5[4:7],26,48,,{4},,,,,,,
{8}2qq7[2:3],,,,,,,6>3[8:5],,,,,,,,,
3h[8:3]/4,,,4,52,,6h[8:2],5,3h[8:2],4,7-4[8:1],4,7,,,,
7h[8:3]/8,,,8,16,,2h[8:2],1,7h[8:2],8,3-6[8:1],6,3,,,,
7-3[8:1],7,2h[8:3],,4,4h[4:1],,1,1h[4:1],,8-5[8:1],8,3-8[8:1],3,4h[4:1],,
1-5[8:1],1,7h[8:3],,4,4h[4:1],,6<1[8:1],5,4,3<6[8:1],2,1,8>3[8:1],7,6,
7-3[8:1],7,1h[8:3],,4,4h[4:1],,1,1h[4:1],,8<5[8:1],8,3>8[8:1],3,4h[4:1],,
{16}2,3,4,5,1,8,7,6,4,3,2,1,7,6,5,4,
2,1,2,1,3,8,3,8,4,7,4,7,5,6,5,6,
{4}2bz6[8:10]*V84[8:10],,,,,,,1s5[8:1]/8-4[8:1],
{8}1b/8b,,
37,1-5[8:1],,15,7-3[8:1],,73,1>4[8:1],,,7V51[16:3],5,4,3,
2q6[8:1],,26,8p4[8:1],,48,3-7[8:1],,13,1<6[8:1],,,2-5[8:1],7-4[8:1],2,7,
1>4[8:1],,15,6v1[8:1],,64,5>2[8:1],,58,8-4[8:1],,,1V37[32:7],5,6,7,
8V64[16:3],,84,2V48[16:3],,24,6,,
17,2,38,7,26,3,47,6,1bs5[2:1]/5b<4[4:3],,,,,,,,5<4[4:3],,,,,,,,
1>8[4:3],,,,,,,,1>4[4:1],,,,,
{16}3,4,2-5[8:1]/5-8[8:1],,,,2b/5b,,,,
4,7,5,6,4,5,3,4,2,5,1b^4[8:1]/6^1[8:1],,,,1/6b,,,,
7,3,6,4,8,2,5,3,7,1,5h[4:1],,,,
1,2,5,6,2,3,6,7,3,4,5b/1b,,,,
6h[8:1]/8h[8:1],,,2h[8:1]/4h[8:1],,,7h[8:1]/3h[8:1],,,1h[8:1]/5h[8:1],,,
26,73,4b<4[1:1]/8b,,,,,,
8h[4:1],,,,,,6h[8:1],,,,7h[8:1],,,,8-4[8:1],,,,48,,,,
1,2,3,4,6,7,8,1,5,4,3,2,1V36[4:1],,6,,7,,8,,1V74[4:1],,4,,3,,2h[8:3],,,,
{8}3V58[4:1],3,1h[4:1],,,{16}
1,7,2,6,3,5,4,6,3,7,2b-5[8:1]/8-5[8:1],,,,2/8b,,,,
6,2,7,1,5,3,8,2,6,4,8h[4:1],,,,
4,3,8,7,3,2,7,6,2,1,8bpp3[8:4]/4bpp7[8:4],,,,,,,,,,,,,,
1-6[8:1]*-4[8:1],,1b,,,,,,53,,5V38[4:1]/3,,46,,7-3[8:1],,8,,7,,,,
8,1,2,,24,,3,,5pp1[4:2]/7,,6,,15,,,,2,,3,,4,,
3,,3-7[8:1],,,,1<6[8:1],,,,5,4,3,,1b/8b,,,,,,
{16}8>3[8:1]*<5[8:1],,8b,,,,,,46,,4<8[4:1]/6,,53,,2-6[8:1],,1,,2,,,,
1,8,7,,57,,6,,2qq5[4:2]/4,,3,,25,,,,5,,6,,7,,
8-4[8:1],,8,,1,,1h[4:1],,,,{32}5h[8:1],,,,1,2,3,4,5,6,7,8,1b/5b,,,,,,,,
{4}8-4[8:1],8V63[2:7]*V25[2:7],,,,,,,,,,,,,,,,
4qq3[8:6],,,,4pp5[8:6],,,,4-8[8:5],,,,4w8[8:5],,,,
{8}3,3,3h[16:1],5,3,3h[4:1],,5,3h[4:1],,
{16}5,3,5h[4:1],,{8},3,5,3h[4:1],,5,3h[4:1],,5v6[8:1],3h[8:1],,,
{8}3h[4:1],,{16}5,3,5h[8:4],,{8},3,3,3h[8:1],
4h[16:1],1h[16:1],4h[4:1],,1,1h[4:1],,4,1h[4:1],,
{16}4,1,4h[4:1],,{8},1,4,1h[4:1],,
4,1h[4:1],,4,1h[8:5],,,,,{16}4,1,4h[8:4],,{8},1,1,1,
25,3,47,6,45,3,45,6,35,2,46,7,18,27,36,45,63,7,81,2,43,5,61,7,84,3,52,6,73,46,1b/8b,,
{16}3h,4h,3h,,2h/5h,,3h,4h,3h,4h,2h,,6h,5h,6h,,7h/4h,,6h,5h,6h,5h,7h,,
{12}3h[12:1],5h[12:1],1h[12:1],6h[12:1],4h[12:1],8h[12:1],
{16}4h,5h,4h,5h,3h,6h,3h,6h,2h,7h,2h,7h,1h,8h,1h,8h,
1-5[8:1],,,,1h,,,,
4-1[8:1]/8-5[8:1],3h/7h,2h/6h,,4h/8h,,,,
{24}2b/8h[4:1],3,4,5-2[8:1],,,,,,15,8,7,6h[8:3],,,
{8},1-5[8:1],1,1/8-4[8:1],,3<6[8:1]/8,,7-4[8:1]/3,,7/8,,
{24}2b/5b,36,47,5/8<5[8:1],,,,,,58,4,3,2V48[4:1],,,
{8},,{16}5,6,{8}7-3[8:1],6,1v4[8:1],2,5v8[8:1],6,2,,
{24}7b/1h[4:1],6,5,4<7[8:1],,,,,,84,1,2,3h[8:3],,,
{8},8<5[8:1],8,8/2-6[8:1],,4<7[8:1]/2,,8-5[8:1]*-4[8:1]/4,,8,,
{16}2h[8:3],,4,,4,,5,3,6h[8:3],,4,,4,,4,,
8qq5[2:1]/3qq5[2:1],,38,,,,,,,,,,,,,,
1s5[8:1],,,,15,,7b-3[8:1],,,,37,,1h[4:1],,,,
{16}5b,,,1b-5[8:1]/5b,,,5,6,7,,84,,37,,26,,
{24}1b/5b,26,37,8/4-8[8:1],,,,,,84,7,6,5h[8:2],,,
{8}1>4[8:1],1,7/1<6[8:1],,1-5[8:1]/3,,1bw5[8:1],,1b,,
37,1bV38[4:1]/5bV74[4:1],,,,,2qq5[2:1]/5,,,5,7-4[8:1],,{16}7,,
3,2,1,8,4,5,6,7,8/4-8[8:1],,,,,,,,
7,6,5,4,8,1,2,3,4,56,7,8,21,3,4,5,{32}8,7,6,5,4,3,2,1,83,4,5,6,7,8,1,2,
{4}3bs7[2:3]*V51[2:3]/7,,,,,,,,4>5[2:3]/5<4[2:3],,,,,,,,
{8}7-3[8:1],7,2h[8:3],,4-7[8:1],4,,1-4[8:1],1,,8-5[8:1],8,3-8[8:1],3,4h[4:1],,
1-5[8:1],1,7h[8:3],,4>1[8:1],4,,6<1[8:1],5,4,3<6[8:1],2,1,8>3[8:1],7,6,
7-3[8:1],7,1h[8:3],,4<7[8:1],4,,1>4[8:1],1,,8<5[8:1],8,3>8[8:1],3,4h[4:1],,
{16}1,5,1,5,2,6,2,6,3,7,3,7,4,8,4,8,3,7,1,5,2,6,4,8,3,5,1,7,3,,28,,
{16}1,1,1,1,1w5[8:1],,28,,1b,,,,37,,1-4[8:1]/5-8[8:1],,,,15,,,,
{8}26,17,35,4-1[8:1]/8-5[8:1],26,4p2[2:6]/8p6[2:6],,,,{1},,,
{16}48,37,26,1-4[8:1]/5s1[8:1],,,,,,,,E
&inote_6=
