&title=花ざかりWeekend✿
&artist=桜守歌織 & 豊川風花 & 北上麗花 & 馬場このみ
&first=2.38
&des=Hisui
&des_5=Hisui
&seek=0.00
&wholebpm=137
&demo_seek=59.8
&demo_len=14.0
&lv_1=音
&lv_5=13
&inote_1=(137)
{4}
1,1,1,1,1,1,1,1,
1,1,1,1,1,1,1,1,
1,1,1,1,1,1,1,1,
1,1,1,1,1,1,1,1,
1b,E,
&inote_5=(137)
{16}
1h[8:1],,6h[8:1],,3h[8:1],,7h[8:1],,4h[8:1],,8,7,6,,,,
2h[8:1],,4h[8:1],,5h[8:1],,7h[8:1],,8,,3,4,3,,1b/6b,,
,,7,6,5^8[8:1],,,,2,3,4^1[8:1],,,,8,,
,,6,5,6,6,,,3,4,3,3,,,3/8,,
,,2,3,4^1[8:1],,8,,7,6,5^8[8:1],,1,,1,,
,,2,4,2,2,,,7,5,7,7,,,3,4,
{8}
2,1-5[8:1],8,1/7h[4:1],,8-4[8:1],1,2h[4:1]/8,
,1,1-5[8:1],,5bw1[8:1],,5b,,
{16}
4,7,5qq3[4:1],6,5,,6,,7,,8,8h[16:3],,,1q5[8:1],,
,,,7,7p3[8:1],,,7,2^5[8:1],,2,,,,,,
7,4,6V48[4:1],5,6,,4,,3,,2,2h[16:3],,,1qq6[8:3],,
,,3,,4,,5^2[8:1]*p1[8:1],,,,5,,,,,,
1,6,8pp2[4:1],7,8,,7,,6,,5^8[8:1],5,,,1h[4:1],,
,,8,7,6,,2,3,4,,7-3[8:1],,,,7,,
{8}
2h[4:1],,4,3-7[4:1]/5-1[4:1],,,,,
{16}
,,5,6,7,,,,3,2,1,,7/8,,1/6,,
5,2,4pp6[4:1],3,4,,3,,2,,1,1h[16:3],,,5-2[8:1],,
,,,3,3-7[8:1],,3,3,6-1[8:1],,6,,,,,,
2,5,3V15[4:1],4,3,,5,,6,,7,7h[16:3],,,3h[4:1],,
,,4,,4h[8:1],,5>1[4:1],,,,6,,,,,,
8,3,1qq7[4:1],2,1,,2,,3,,4^1[8:1],4,,,7h[8:3],,
,,1,,3h[4:1],,1,,6h[4:1],,1,,4h[4:1],,1,8,
7,,2,3,4,,7,6,5,,3/4,,2/5,,1/6pp3[8:3],,
{8}
,2,3,4-1[8:1],,4,8b,,
2-5[8:1]/7-1[8:1],1,2/7-3[8:1],,1/7,,2-8[8:1]/7-4[8:1],8,
2-6[8:1]/7,,2/8h[4:1],,1b,2b,3b,,
2-8[8:1]/7-4[8:1],3/8,2-6[8:1]/7,,2/8,,2-5[8:1]/7-1[8:1],1/6,
2/7qq3[2:1],,1h[2:1]/7,,,,,,
3-8[8:1]/7-4[8:1],2/6,3/7,,1/5,2/6,3/7,4/8-3[8:1],
,1-6[8:1],,7-4[8:1],,2-5[8:1],,5bpp2[4:1],
{16}
,,8,,8,,,,1,7,2,6,3,,4qq2[4:1]/5pp7[4:1],,
{8}
,4/5,,,3/6,1^6[8:1]/8^3[8:1],,1/8,
,4/7,2/5-8[8:1],4/7,2/5,4w8[8:1],,4b,
,8,1/7,2v4[8:1]/6v8[8:1],3/7,2/6,,,
{16}
6-1[8:1],5,6,,2,,,,3-8[8:1],4,3,,7,,7h[8:3],,
{8}
,8,1h[4:1],8,6pp4[4:1],8,2,2-5[8:1],
,2/8-4[8:1],,4w8[8:1]/8,,4,,2b/6b,
,,4/8,3/7,4/8,3-7[8:1]/7-4[8:1],4/8,3/7>4[8:3],
,5,6,7,8h[8:3],,5^2[8:1],5,
5^8[8:1],,5,,1,3/7,4,2/6pp3[8:3],
{8}
,2,3,4-1[8:1],,5w1[8:1],,5b,
{8}
,3h[4:1],5,7h[8:11],1-5[8:1],1,,,
1,6,1,6-1[8:1],1,6,,8^5[8:1],
,4,3,2,1^4[8:1]/5,6,7,8v3[8:1],
,1v6[8:1]/8,,1/8w4[8:1],,8,,2b/6b,
,,3/8,2,1/6,7,2qq7[2:1]/8,3,
,4,4,5,5,,2V48[8:1]/7V51[8:1],2/7,
,,6h[8:1],7h[8:1],8h[8:1],1h[8:1],2h[8:1],3-7[8:1],
,5-1[8:1],5,4-8[8:1],4,6pp5[8:3],6qq5[4:1],6b,
{16}
,,,,,,,,4,3,2,,8,,1h[4:1],,
,,7,6,5^8[8:1],,,,5,,2,3,4^1[8:1],,8,,
,,7,,6h[4:1]/8,,,,5,4,3,,5,,2h[2:1]/4,,
,,1,,8,,7,,6,5b/7b,,5b/7b,,5b/7b,6,,
{8}
4-7[8:1]/5-1[8:1],,4/5,,4/5-2[8:1],,4-8[8:1]/5,4,
{16}
,,7,6,5,,,,3,2/4,,2/4,,,,,
8h[1:1],,1,2,3,,7,6,5,,2,3,4,,6,5,
{8}
4p1[2:1],,,,6,,,5-8[2:1],
{1}
,
{8}
8^5[4:1],,,,7^4[4:1],,,3^6[4:1],
,,,,4^1[4:1],,,8,
,2/7,,3/6,,4>2[8:1]/5<7[8:1],,4/5,
{4}
,1-5[4:1]/6,6,6,
6/8-4[4:1],6,6,6,
{8}
5/6,,4/7,4/7,3/8,3/8,1/2,1/2pp5[8:3],
,8,7,6h[4:1],,5-2[8:1]*-7[8:1],,5,
,1w5[8:1],2/8,1,,5v2[8:1]*v8[8:1],,5b,
,4/6h[8:1],2h[8:1],4h[8:10],8-3[8:1],8,,,
8,3,8-3[8:1],3-8[8:1],8,,5,5^8[8:1],
,1,2,3,4^1[8:1]/8,7,6,5-2[8:1]*-3[8:1],
,5-7[8:1]*-8[8:1],,5w1[8:1],,5,,3b/7b,
,,3/8,2,1/8,7,1/6qq3[2:1],7,
,8,8,1,1,,2V41[8:1]/8V61[8:1],2/8,
,,7h[8:1],6h[8:1],5h[8:1],4h[8:1],3h[8:1],2-6[8:1],
,7-3[8:1],7,4-8[8:1],4,5-1[8:1],5,8b,
{16}
,,7,6,5^8[8:1],,,,2,3,4^1[8:1],,8,,8,,
,,7,3,5,5,,,2,6,4,4,,,1/8,,
,,2,3,4^1[8:1],,8,,7,6,5^8[8:1],,1,,1,,
,,8,4,2,2,,,1,5,7,7,,,,,
2^7[8:1],,,7,,,6q3[8:1],,,3,,,4,,,,
{1}
4p1[2:1]/5q8[2:1],
{16}
1b-7[16:1],,,7b-3[16:1],,,3b-5[16:1],,,,5b<4[4:1],,6b,,7b,,
{1}
,
,
,
,
E
