&title=毒林檎
&artist=DECO*27
&first=0.73
&des=転生毒林檎
&lv_5=13+
&inote_5=(97){4},,,,,,,,,,{2}5h[4:1]/4>2[8:1],
4h[4:1]/5<7[8:1],5h[4:1]/4>2[8:1],
4h[4:1]/5<7[8:1],{6}5h[4:1]/4-2[8:1],{24},,,,B6,B7,,,{3}4h[4:1]/5-7[8:1],
{24}B3,B2,,,{6}5h[4:3],{24},,,,E4,B3,,B2,
{8}1x,2x,{24}3x,,,,,5,4h[4:1]/5<7[8:1],,,,,,,,,,,4,
{8}5h[4:1]/4>2[8:1],4,{24},,,,,5,4h[4:1]/5<7[8:1],,,,,,,,,,,4h[6:1],
5h[8:1],,,,,3h[6:1],6h[8:1],,,,,1,8h[4:1]/1-4[8:1],,,,,,,,,,,5,
{8}4h[4:1]/5-8[8:1],5,{24},,,,,B4,B3,,,,,B2,B1,,,,,B7,
{8}B6,5/4,3>6<3[4:5],6,{4}3b/5h[24:5],5h[24:5],
5h[24:5],5h[24:5],{2}5h[4:1],
{12}4,{24}4,3,,3,{8}2>7<2[4:5],2,{4}8h[24:5],8h[24:5],
8h[24:5],8h[24:5],{2}8h[4:1],
{12}4,{24}5,4,,5,{8}4,3/6,{2}7/2,
{24}6x,7x,8x,4x,3x,2x,{12}1x>4[8:1],{24}1x,8x,,8x,{8}1/7<6-4[8:1],6,7/1pp4[4:1],2,
6/1,7,{12}8<5[8:1],{24}8,1,,1,{8}8/2>3-5[8:1],3,2/8qq5[4:1],7,
3/8,2,{12}1-3[8:1],{24}1,8,,8,{8}1-7[8:1],6,1-3[8:1],4,
1,{24}8bx,,1bx,,,5,4,,4,{12}3,{24}3,2,,2,{8}1h[8:1],C,
{24}4x,3x,2x,5x,6x,7x,{8}8x-2-4b[4:1],B8,4-6-8[4:1],B4,8>1-3<4b[4:1],B8,
4<5-7>8[4:1],B4,1,2,3,4/6,5,{24}4,,5,
{4}4h[8:1],{12}4/5,{24}4,3,,3,{8}2xV46[8:1],4,2x<1-7<6[8:1],8,
2bx-6b[16:1],{24}4bx,,2bx,,,7x,8x,,8x,{12}1x,{24}1x,2x,,2x,{8}5h[8:1],C,
{24}5x,6x,7x,8x/4x,3x,2x,{8}1x,4/5,{2}5h[8:5]/4h[12:7],
{24},,,,,E7/B7/B6,{4}Cfh[2:1],{64},,,,,,,,,,,,,,,,E2,B1,B8,E8,{192},,,,{24}4x,5x,,,{12}6/3,
{24}5,4h[8:1],,,,,,,,,{12}7/5,{24}6,4,,,{12}3/5,{24}4,6,,,{12}2/4,
{24}3,8h[8:1],,,,,,,,,{12}5,{24}5,3,,,{12}4,{24}4,6,,,{12}5,
{24}5,2h[8:1],,,,,,,,,{12}6x/4x,5x/3x,6x/4x,5x/2x,7x/4x,8x/1x,
7x/2x,6x/3x,5x/4x,2b/7b,{24},,,1,{4}8h[4:1]/1-3[8:1],{24}1,,,,,5,
{4}4h[4:1]/5-7[8:1],{24}5,,,,,2,{4}1h[4:1]/2-4[8:1],{24}2,,,,,7,
{4}8h[4:1]/7-5[8:1],{24}7,,,,,4,{4}5h[4:1]/4>3-1[8:1],{24}4,,,,,5,
{8}4h[4:1]/5<6-8[8:1],5,{24},,,,,2,1,,,,,6,5,,,,,7,
8,,,,,3,{8}3qq1[8:1],{24}1x>2-4[8:1],,4,3b,,,,,6,{8}6pp8[8:1],{24}8x<7-5[8:1],,5,
6b,,,,,2,{8}2qq8[8:1],{24}8x>1-4[8:1],,1,{4}2b,{12}5,{24}5,6,,6,
{12}7,{24}7,8,,8,{4}1-7<6b[8:1],{8}5/1-3<4[8:1],5,5/1-7<6b[8:1],5,
5/1-3<4[8:1],{24}5,,5,1<8-6>5[24:5],,,,,2,{12}1,{24}5x,4x,3x,2x,{8}1x,{24}4,,4,
{12}2,{24}2,1,,1,{12}8,{24}8,7,,5,5h[24:5],,,,,4,4h[24:5],,,,,3,
3h[24:5],,,,,2,2h[24:5],,,,,1,{4}1h[2:1],C,
{12}3,{24}4,5,,6,{12}7,{24}8,1,,,5h[24:5],,,,,6,6h[24:5],,,,,7,
7h[24:5],,,,,8,8h[24:5],,,,,1,{4}1h[2:1],C,
{12}2,{24}3,4,,6,{8}7,5,{2}1h[4:11]/2bv7<2b[2:5],
{1},,{4},,{8}6/4,
5/3,4/7,5/2,
4/3,{24}7bx,,8bx,,,5,4,,3,{12}2,{24}6,7,,5,{8}4h[8:1],B5,
{24}3,2,1/5,6,7,8,{4}1-3[8:1],1/5-7[8:1],5/1v4[8:1],
1/5v8[8:1],5/1-4<6-1[4:1],{8}1/5,{24},,,,,,7,,6,
{8}5,4,{12}3,{24}2,1,,1,{8}2x/8xh[8:1],2,2/4h[8:1],2,
2/7h[8:1],2,2/5h[8:1],{24}2,,6,{8}2/6h[8:1],{24}2,,8,{8}2/8h[8:1],2,
{24}4,5,3,6,5,7,{8}1>2-4[8:1],2/Cf,1b/7b<6-4b[8:1],{24}6,,8x,{8}7x/1xpp4[4:1],2,
6/1,7,{12}8<7-5[8:1],{24}8,1,,1,{8}8/2>3-5b[8:1],{24}3,,1,{8}2/8qq5[4:1],7,
3/8,2,{12}1x-3<4b[8:1],{24}1,8,,8,{8}1x-7<6[8:1],{24}5,,5,{8}6x/1x>2-4b[8:1],{24}5,,5,
{8}4x/1x,{24}8bx,,1bx,,,5,4,,4,7,6,5,1,2,3,{8}4/8h[8:1],B5/E6/E5,
{24}4,3,2,5/1,6,7,{4}8x>1-3<4b[8:1]*V24b[8:1],8bV64b[8:1]*<7-5>4b[8:1],8b,
{48}1x-5[16:1],2x,{24}3x,{48},,7x-3[16:1],6x,{12}5x,1b,{24},{8}7b,8,4/6,5,{24}5/2,,3,
{8}4,5,{12}4/6,{24}8-4[16:1],7-5[16:1],,7,{12}8,{24}8,7,,1-5[16:1],{12}2-4[16:1],{24}2,1,,1,
{8}2,{24}1bx/8bx,,8bx/1bx,,,4,5,,5,1,2,3,4-2<1b[16:1],5,6,,,,{8}4/7,
{24}7,6,5,4-6<7b[16:1],3,2,{8}1>2-4[16:1],4b,{2}1b,
{24},,B2,C,,B7,{4}E7,
E
