&title=ネクロファンタジア~Arr.Demetori
&artist=Demetori
&first=0
&des=ONLY 1 SLIDE AND 1 BREAK
&lv_5=14
&inote_5=(180){4},{16},,,,,,,,,,,,1,
7,2,6,1,7,{8}4h[8:9],{1},{24}7,
6,5,1,2,3,{4}4/8,
{16}8,2,7,3,8,2,{8}5h[4:1],{16},,3,3,{8}4,{16}2,2,
8,1,7,2,8,1,7,2,{32}8,7,6,5,4,3,2,1,{4}8/4,
{16}7,1,6,2,7,1,6,2,{8}7,5/2,{16}3,4,{8}3,
4/7,{16}6,5,{8}6,8/1,{16}5h[8:1]/6h[8:1],,,3h[8:1]/4h[8:1],,,{8}8/1,
{16}8,7,1,2,7,6,2,3,6,5,3,4,7,6,2,3,
8,7,6,5,1,2,3,4,{32}8,7,6,5,4,3,2,1,{4}8/4,
{8}3/7,6,4,5/2,3,7,6/4,3,
{16}2,4,3,4,{8}1,1,{16}7,5,6,5,{8}8,8,
6/2,3,4/7,6,5/4,3,2/8,7,
6/4,2,3/5,7,4/6,1,5/3,8,
7/4,6,2,5/1,2,4,3/7,6,
{16}3,4,{8}2,{16}6,5,{8}7,{16}3,5,{8}2,{16}6,4,{8}7,
{16}1,8,1,8,2,7,3,6,4,5,4,5,{24}2,3,4,8,7,6,
{16}1h[8:1]/5h[8:1],,,3h[8:1]/4h[8:1],,,{8}1/8,{4}6/3,8,
{8}1/7,6,{16}3,4,{8}3,2/8,3,{16}7,5,{8}6,
3/4,2,{16}7,1,6,2,{8}7,{16}3,4,2,5,{8}3,
8/2,3,{16}6,5,{8}6,7/1,6,{16}2,4,{8}3,
6/5,7,{16}2,8,3,7,{8}2,{16}6,5,7,4,{8}6,
1/7,6,{16}3,4,{8}3,2/8,3,{16}7,5,{8}6,
5/1,2/6,3/7,4/8,{16}2,1,3,8,{4}4,
{8}8/2,3,{16}6,5,{8}6,7/1,6,{16}2,4,{8}3,
{16}6,4,5,3,4,3,5,4,6,3,7,2,{8}8,8,
{12}3,4,3,2h[8:1]/5h[8:1],,,{4}8/2,5h[8:1]/6h[8:1],
8/1,{8}3/6,{16}8,1,,,{8}8,{16}4,5,3,6,
{4}1,{8}4/7,{16}6,5,{8}6,3/8,{16}6,5,{8}6,
{16}2,8,3,7,{8}2,{16}3,4,{8}3,6/1,{16}3,4,{8}3,
{16}7,1,6,2,{8}7,{16}5,4,{8}5,2/7,{16}4,5,{8}4,
{4}8/1,{8}7/5,6,2/4,3,8/6,7,
3/1,2,4/5,{16}6,5,{8}7,{16}2,1,{8}3,{24}8,7,6,
{4}5/2,{16}3,4,2,6,5,7,1,8,2,7,{8}5/4,
{4}4/5,{16}2,1,{8}2,3/8,{16}7,4,6,5,{8}7,
{4}1/8,{16}7,8,{8}7,6/1,{16}2,5,3,4,{8}2,
{4}8/1,{8}5/2,{16}3,4,{8}3,6/1,{16}3,4,{8}3,
{16}7,1,6,2,{8}7,{16}6,5,{8}6,3/8,{16}6,5,{8}6,
{16}2,8,3,7,{8}2,{16}4,5,{8}4,7/2,{16}5,4,{8}5,
{4}1/8,{8}2/4,3,7/5,6,1/3,2,
6/8,7,5/4,{16}3,4,{8}2,{16}7,8,{8}6,{24}1,2,3,
{4}4/7,{16}6,5,7,3,4,2,8,1,{32}7,6,5,4,3,2,1,8,
{4}7/3,{8}6h[8:1],{16}4,5,{8}3h[8:1],{16}5,4,{8}6h[8:1],{16}4,5,
{8}2,8,3h[8:1],{16}5,4,{8}6h[8:1],{16}4,5,{8}3h[8:1],{16}5,4,
{8}7,1,4/3,5/2,1/6,5/6,4/7,8/3,
{2}1h[4:1]/2h[4:1],{16}8/4,7/3,6/2,5/1,{4}4h[4:1]/8h[4:1],
{8},,3h[8:1],{16}5,4,{8}6h[8:1],{16}4,5,{8}3h[8:1],{16}5,4,
{8}7,1,6h[8:1],{16}4,5,{8}3h[8:1],{16}5,4,{8}6h[8:1],{16}4,5,
{8}2,8,{16}6,5,7,4,{8}6h[8:1],{16}2,8,3,7,{8}2h[8:1],
{32}1,8,7,6,{8}5,{4}3h[4:1]/2h[4:1],{8},6h[4:1]/7h[4:1],,,{4}1/8,
{8}3h[8:1],{16}5,4,{8}7h[8:1],{16}3,5,{8}2h[8:1],{16}6,4,
{8}7,1,6h[8:1],{16}4,5,{8}2h[8:1],{16}6,4,{8}7h[8:1],{16}3,5,
{8}2,8,5/6,4/7,8/3,4/3,5/2,1/6,
{2}8h[4:1]/7h[4:1],{16}1/5,2/6,3/7,4/8,{4}5h[4:1]/1h[4:1],
{8},,6h[8:1],{16}4,5,{8}2h[8:1],{16}6,4,{8}7h[8:1],{16}3,5,
{8}2,8,3h[8:1],{16}5,4,{8}7h[8:1],{16}3,5,{8}2h[8:1],{16}6,4,
{8}7,1,{16}3,4,2,5,{8}3h[8:1],{16}7,1,6,2,{8}7h[8:1],
{32}8,1,2,3,{8}4,{4}6h[4:1]/7h[4:1],{8},3h[4:1]/2h[4:1],{16},,,,8,
1,{8}8,3,7/1,{16}4,6,{8}1,3,{16}1,6,
4,6,{8}1,3,7/1,{16}4,6,{8}1,3,{16}1,6,
4,5,{8}1,3,7/1,4,2/8,3,7/1,
4,2/8,{16}3,4,{8}1,3,{16}1,7,2,6,1,7,
{8}2,3h[4:1]/4h[4:1],{16},,,,6,5,8,1,4,3,8,1,
7,2,{8}4h[4:1]/5h[4:1],{16},,,,3,4,1,8,5,6,1,8,
2,7,{8}4h[4:1]/5h[4:1],{16},,,,3,4,2,1,3,8,4,7,
{8}5,6,{16}3,4,2,5,{8}3h[8:1],{16}7,1,6,2,{8}7h[8:1],
{32}8,1,2,3,{8}4,6,2/8,{16}5,3,{8}8,6,{16}8,3,
5,3,{8}8,6,2/8,{16}5,3,{8}8,6,{16}8,3,
5,4,{8}8,6,2/8,5,7/1,6,2/8,
5,7/1,{16}6,5,{8}8,6,{16}8,2,7,3,8,2,
{8}7,6h[4:1]/5h[4:1],{16},,,,3,4,1,8,5,6,1,8,
2,7,{8}5h[4:1]/4h[4:1],{16},,,,6,5,8,1,4,3,8,1,
7,2,{8}5h[4:1]/4h[4:1],,,7/8,3/4,1/2,6/5,
{16}1,8,{8}1,{16}6,5,7,4,{8}6h[8:1],{16}2,8,3,7,{8}2h[8:1],
{32}1,8,7,6,{8}5,2,3,5,4,3/7,6,
4,5,2/8,3,5,4,7/1,{16}6,5,
{8}6,2/8,,3,5,3,2/6,7,
1,7,4/8,3,5,3,6/5,2/1,
,3/7,,4,5,3,2/6,7,
1,7,2/8,3,4,3,{16}6,5,6,5,
{8}6,8/2,,3,5,2,4/7,6,
1,5,{16}1,8,1,8,1,8,1,8,1,8,1,8,
{4}2/7,{8}6h[8:1],{16}4,5,{8}3h[8:1],{16}1,2,{8}8h[8:1],{16}5,7,
{8}4h[8:1],{16}6,3,{8}5h[8:1],{16}2,4,{8}1h[8:1],{16}8,2,{8}7h[8:1],5,
{4}4/6,{8}3h[8:1],{16}5,4,{8}6h[8:1],{16}8,7,{8}1h[8:1],{16}4,2,
{8}5h[8:1],{16}3,6,{8}4h[8:1],{16}7,5,{8}8h[8:1],{16}1,7,{8}2h[8:1],4,
5/3,6h[8:5],,7,7,8,8,1,
1,2h[8:7],,3,3,4,4,5,
5,6,{16},,1,8,2,7,3,6,{8}4,{16}5,5,
{8}3,{16}7,7,1,8,2,7,1,8,2,7,{32}1,2,3,4,5,6,7,8,
{4}1/5,{8}3,7/1,{16}4,6,{8}1,3,{16}1,6,
4,6,{8}1,{16}3,7,{8}1,{16}4,6,{8}1,3,{16}1,6,
4,5,{8}1,3,7/1,{16}4,8,{8}2,{16}3,7,{8}1,
{16}4,2,{8}8,{16}3,4,{8}1,3,{16}1,7,2,6,1,7,
{8}2,3h[4:1]/4h[4:1],{16},,,,3,7,1,5,{8}2h[4:1],4,
{32}1,8,7,6,{8}5h[4:1],,2,{16}6,2,8,4,{8}7h[4:1],5,
{32}8,1,2,3,{8}4h[4:1],,7,{16}3,4,2,1,3,8,4,7,
{8}5,6,{16}3,4,2,5,{8}3h[8:1],{16}7,1,6,2,{8}7h[8:1],
{32}8,1,2,3,{8}4,6,2/8,{16}5,3,{8}8,6,{16}8,3,
5,3,{8}8,6,{16}8,2,5,3,{8}8,6,{16}8,3,
5,4,{8}8,6,{16}8,2,{8}5,{16}7,1,{8}6,{16}8,2,
{8}5,7/1,{16}6,5,{8}8,6,{16}8,2,7,3,8,2,
{8}7,6h[4:1]/5h[4:1],{16},,,,6,2,8,4,{8}7h[4:1],5,
{32}8,1,2,3,{8}4h[4:1],{16}6,,,7,1,5,{8}2h[4:1],4,{32}1,8,7,6,
{8}5,1h[4:1],{16},,8,4,7,3,6,2,5,1,4,8,
{32}1/5,2/6,3/7,4/8,,,,,{16}6,5,7,4,{8}6h[8:1],{16}2,8,3,7,{8}2h[8:1],
{32}1,8,7,6,{8}5,{16}2,8,3,7,2,8,3,7,{8}2,4/7,
{16}6,5,{8}6,5/2,{16}3,4,{8}3,1/8,{16}5,4,6,3,
{8}8,4,{12}7,3h,5,1h,3,7h,4,8h,6,
2h,8,4h,2,6h,8,4h,6,2h,4,7h,5,
1-5[12:1],8,{6}1b,
E
