&title=BlythE
&artist=M2U
&first=0.8
&des=senorita
&wholebpm=180
&demo_seek=75.4
&demo_len=16.2
&des_5=senorita
&lv_5=14
&inote_5=(180)
{1},
{1},
{16},,,,,,,,,,,,,,,,
{48},,,,,,,,,,,,,,,,,,,,,,C,,,,,,,,,,,,,,E1,,,E3,,,E5,,,E7,,,
{16},E4,,E6,,1b,,,,,,,,,,,
{8}6pp1[2:1],,4,,,3,3h[4:1],,
{8}5h[4:3],,,,3,2,1qq3[2:1],,
{16},,,,,,5,,5h[4:1],,,,3x,4x,5x,6x,
{16}7x,8x,1x,2x,3h[2:1],,,,8,,,,6,,4,5,
{16}3,,,,2-4[8:1],,,,2,,1-5[8:1],,,,1,,
{16}8-6[8:1],,,,8,,4-2[8:1]*-8[8:1],,,,4,,,,35,,
{8},,2h[8:1],1h[8:1],8h[8:1],7h[8:1],6h[8:1],5h[8:1],
{16}4x,3x,2x,1x,8x-4[8:1],7x,6x,5x,4x,,,,,,,,
{8}6h[4:1],2,3,4h[2:1],5,6,5,6,
{8}7h[2:1],4,3,4,3,3h[8:3],4,5,
{8}6h[4:3],5,4,3,2,1,2,3,
{16}54,,7,8,7,,3,4,2,,6,5,7,,37,,
{8},3,3h[8:3],5,6,6h[8:3],4,3,
{8}3h[8:3],4,5,5h[8:2],4,3h[8:3],4,5,
{8}6,4,5,6,7h[8:3],4,3,4,
{32}5,,,,3,,,,1,,,,1x-5[8:1],,8x/2x,,7x/3x,,,,1,,,,,,,,,,,,
{8}3h[4:1],7,6,5h[2:1],4,3,4,3,
{8}2h[2:1],5,6,5,6,6h[8:3],5,4,
{8}3h[4:3],4,5,6,7,8,7,6,
{16}45,,2,1,2,,6,5,7,,3,4,2,,62,,
{8}2,6,6h[8:3],4,3,3h[8:3],5,6,
{8}6h[8:3],5,4,4h[8:2],5,6h[8:2],4,3,
{8}2h[4:1],5,6,1,46,2,35,1/8-4[8:1],
{8},2-6[8:1]/8,3,2/8V64[4:1]*V24[4:1],,,,,
{16}6,,5,,3,,5,4,6,4,7,,2,,3,,
{16}6,5,7,,4,5,3,,6,4,5,3,4,5,6,,
{16}3,,2,4,3,5,4,,6,,6,4,5,,3,,
{16}3,4,2,,4,,6,,6,5,7,,7,8,6,,
{8}5,3,7,1,8,7,6,5,
{8}5h[2:1],1,2,3,4,2,3,
{8}4,5,6,7p3[8:1],8,7,2q6[8:1],1,
{8}2,7<4[8:1],8,7,2>5[8:1],1,2,7,6,
{16}5,,4,,3,,6,5,6,5,4,,3,,4,,
{16}3,4,2,,2,1,3,,7,8,6,1,5,2,4,,
{16}3,,4,5,3,4,5,,7,,6,5,7,,3,,
{16}3,4,2,,4,,6,,6,5,7,,7,8,6,,
{16}1,,7,,34,,2,,6,4,5,,4,,56,,
{16}6,5,7,,48,,5,,3,5,4,,5,4,6,5,
{8}5,7,35,2,46,37,28,1,
{8}1-5[8:1],5w1[8:1],,,,,,,
{8}3h[8:3],4,5,6,6h[8:3],2,3,4h[4:1],
{16}7,,8,,8x-4[8:1]/4x,3x/7x,2x/6x,1x/5x,8x/4xp8[4:1]*q8[4:1],,,,,,,,
{8},,2h[4:1],4,5,6h[4:1],1,8,
{16}7h[4:1],,5,,4h[16:3],,8,5,1,,2,,3,4,2,,
{8}2h[4:1],4,5,6h[4:1],3,4,5h[4:1],6,
{8}7h[4:1],8,1,2,8,1/7-3[8:1],8-4[8:1],7qq8[8:5],
{8}8pp7[2:1],,,,,,,,
{8}7p3[8:1],8,7,2^5[8:1],1,2,6,2,
{8}6h[8:3],2,3,4,5,6,7,8,
{16}7,6,5h[8:2],,4,,3,,2,,1,,8,,7,,
{16}6h[8:3],,5,,4,,3h[8:3],,6,,5,,4h[4:1],,3,,
{16}2h[8:3],,6,,7,,8,,1,,2,,3,,4,,
{8}4h[2:1]/5,5,6,6,7,7,8,8,
{8}37,37,26,26,15,15,48,4h[4:3]/8,
{16}7,,7,,6,,6,,5,,5,,5<4[16:7],6<5[16:7],7>6[16:7],8>7[16:7],
{16}1>8[16:7],A6,A7,A8,A1,A2,A3,A4,1x,2x,3x,4x,
{16}1x-5[8:1]/5x,6x,7x,8x,
{16}1x/5xq1[4:1]*p1[4:1],,,,,,,,,,,,6,,6,,
{16}6,5,7,,4,5,3,,3,4,2,5,3,4,1,,
{16}3,,6,4,5,4,3,,2,,6,4,5,,3,,
{16}3,4,2,,3,,45,,6,5,7,5,7,8,6,1,
{16}5h[8:1],,3h[8:1],,7h[8:1],,1,8,2,8,3,,4,,56,,
{16}7,7,5,,4,5,3,,3,4,2,4,2,1,3,8,
{16}4,,3,3,6-1[8:1],,5,,6,,3-8[8:1],,4,,3,,
{16}6<1[8:1],,5,,4,,3,,3,1,2,,6,8,7,,
{16}1,,2,,3,,4,5,3,5,6,,7,,3,,
{16}3,4,2,,2,1,3,,7,8,6,1,5,2,4,,
{16}3,,6,4,5,4,3,,2,,6,5,7,,3,,
{16}3,4,2,,4,,6,,6,5,7,8,6,1,5,,
{16}4,,2,,34,,2,,6,4,5,,4,,56,,
{16}6,5,7,,48,,5,,3,5,4,,4,5,3,4,
{8}5,7,35,2,46,37,28,1,1-5[8:1],
{16}5w1[8:1],,,,,,,,,,,,,,
{8},,3x,,6,6xv5[6:1],,3,
{16}3x-6[6:1],,,,3,,7x,,,,5,,4,,3,,
{8}2-4[6:1],,2x,,5,5xv6[6:1],,2x,
{16},,3,,4x,,3,4,5,,6,5,4,,5,4,
{8}3,3,6x-3[6:1],,6,2x,,5,
{16}5xv6[6:1],,,,3,,3x,,,,5,,4,,6,,
{8}3,,4xv3[6:1],,6,6-3[6:1]x,,6x,
{16}2,,,,5x,,6,5,4,,3,4,5,,4,5,
{8}6,6,5h[8:3],,3,3x,,,
{24}5x,,,4,,,3,,,E4,B4,B5,E6,6hx[24:8],,,,,,,,3,,,
{8},,4xv3[6:1],,5,5x,,6,
{8}5x,4x,3hx[8:3],,5,5x,,,
{8}6,6xv5[6:1],,,3hx[4:1],,,,
{8}5hx[4:1],,,,2hx[4:1],,5hx[4:1],,
{8}3hx[8:7],,4,4,5,5,6,7,
{24},,,2,3,4,5,,,,,,,,,5hx[4:1],,,,,,,,,
{8}4hx[4:1],,,,6hx[4:1],,,,
{16}4x,,4,,5,,5,,3x,5,3,4,3x,,6,,
{8}6hx[8:7],,5,5,4,4,3,2,
{96}4,,,,,,,,,,,,7,,,,6,,,,5,,,,4,,,,,,,,,,,,5,,,,,,,,,,,,4,,,,,,,,,,,,5,,,,,,,,,,,,7,,,,6,,,,5,,,,3,,,4,,,5,,,6,,,
{1},
{48},,,,,,,,,,,,,,,,,,,,,,C,,,,,,,,,,,,,,,,,,,,,,,,E5,,
{16},,,,1b,,,,,,,,,,,,
{288},,,,,,,,,,,,,,,,,,,,,,,,,,,,,,,,,,,,,,,,,,,,,,,,,,,,,,,,,,,,,,,,,,,,,,,,,,,,,,,,,,,,,,,,,,,,,,,,,,,,,,,,,,,,,,,,,,,,,,,,,,,,,D7,,,,,,,,,,E7,,,,,,,,,B6,,,,,,,,,B3,,,,,,,,,E3,,,,,,,,,D3,,,,,,,,,,,,,,,,,,,,,,,,,,,,,,,,,,,,,,,,,,,,,,,,,,,,,,,,,,,,,,,,,,,,,,,,,,,,,,C,,,,,,,,,,,,,,,,,,,,,,,,,,,,,,,,,,,,,,,
{64},,,,,,,,,,,,E7,,,,,C,,,,,E3,,,,,,,,,,,,,,,,,,,
E
