&title=春難色
&artist=稲葉曇 Vo. 彩澄しゅお & 彩澄りりせ
&first=0
&des=好想看女同啊
&lv_5=13+
&inote_5=(144)
{1},
{8}B3,,5h[8:2],,3,3,6-4[8:1],,
3,,2-4[8:1],,5,
,7,,8h[8:2],,3,2,1-5[8:1],
,,7,7-5[8:1],,4,,3,
,1h[8:2],,8,,7h[8:2],,6,5,4-6[8:1],,
7,,8-4[8:1],,3,2,1h[8:2],,
8-5[8:1],,2,3,4-1[8:1],,5,6,
7-4[8:1],,3,,2,,1h[8:2],,
8-4[8:1],,3,,2-6[8:1],,7,,
8-4[8:1],,3,,2-5[8:1],,8-4[8:1],,
1h[8:2],,,,2-5[8:1],,8-4[8:1],,
3h[8:1],,,,6,6,4,5,
3,2,4-6[8:1],,2-4[8:1],,5-2[8:1],,
6,,7-4[8:1],,3,3,2,2,
1h[8:2],,7-4[8:1],,2,,1-5[8:1],,
6,,8-4[8:1],,3,,6,7,
8h[8:2],,5-3[8:1],,7-5[8:1],,4-7[8:1],,
3,,2-5[8:1],,6,6,7,7,
8-4[8:1],,1,,2/5,,3/6,,
4bxqq6[8:4]/7bxpp5[8:4],,,,,,,,
1b>4[8:1]/6,,1,6<8[8:1],1-5[8:1],6,1>6[8:2],,
6>1[8:2],,7qq5[16:3],,7,,1>4[8:1],,
6,,8<3[16:4],,3<8[8:2],,2,2,
2q3[16:5],,2/8<4[16:3],,8,,1,1,
1h[16:4],,4<7[8:1],2,4,3>1[8:1],8p4[8:1],3,
8<3[8:2],,3<8[8:2],,2,,3qq4[8:2],,
4<1[8:2]/3,,7,,5-1[8:1],,5/6,,
{8}8-4[8:1],7,3-8[8:1],2,5-1[8:1],6,{16}3,,3,,
4b/8b,,,,{8}2>5[8:1],6pp8[16:3],2,6,2<5[8:2],,
5<2[8:2],,4pp4[8:2],,4>7[8:2],,1,,
3,,8p2[8:2],,2q8[8:2],,1>4[8:1],1,
1p8[16:5],,2>6[8:2]/1,,2,,7,7,
7h[16:4],,5>2[8:1],8qq6[8:1],5,8,1>6[8:2],,
6>1[8:2],,8p4[8:1],,8>4[16:3],,8/7,,
5-7[8:1],,2-5[8:1]/5v8[8:1],,5>1[16:3],,7,,
6-1[8:1],7,2-5[8:1],3,8-4[8:1],7,2,2,
1xp4[8:12]/5xp8[8:12],,,,,,,,
,,,,,,,,
,B1,B5,B2,B7,{16},B3,,,B6,,
C,,,,,,,,,,8h[8:1],,2h[8:1],,5h[8:1],,
3b,,,,6h[8:4],,,,5,,,,4,,,,
{8}3-6[8:2],,,,7h[16:6],,8,,
1-4[8:2],,,,5h[8:4],,,,
3,,2,,1h[8:2]/5-8[8:2],,,,
2h[8:4],,,,1-5[8:2],,,,
3,,4,,5>2[8:2]/6h[8:2],,,,
7h[8:3],,,,1>4[8:2],,,,
8,,7/B3,,6/B2,,5/B1,,
2h[8:1]/5h[8:1],,3<6[8:3],,7,,8,,
1h[384:1],,2>5[8:3],,6,,7,,
8h[384:1],,1>4[16:6],,5,,6,,
7h[384:1],,8-5[8:4]/4-1[8:4],,,,,,
,,6>3[8:3],,2,,1,,
8h[384:1],,7<4[8:3],,3,,2,,
1h[384:1],,8<5[16:6],,4,,3,,
2h[384:1],,5<8[8:3]/1>4[8:3],,,,,,
7-5[8:1],7,,4-8[8:1],3,2,1,1-5[8:1],
8,{16}7,,7h[8:3],,,,,,{8}3-5[8:1],3,6-2[8:1],
7,8,8-5[8:1],,,2-4[8:1],2,5-1[8:1],
6,7,7-3[8:1],,,8,1,5,
2/6,,5-3[8:1],,{16}7-5[8:1],,,,4,,3,,
2/4-7[8:1],,,,1-4[8:1],,,,8,,8,,7,,7,,
6h[8:2],,,,1>4[8:2],,,,,,5,,6,,7h[8:2],,
5-2[8:1],,,,8-4[8:1],,,,3-8[8:1],,,,7,,6,,
5-1[8:1],,,,5/2,,,3,4>1[8:1],,7,,7p4[8:3],,,,
3,,,,2,,,,1-5[8:1],,,8,1,,7,,
2h[8:1]/6h[8:1],,,,1bpp4[8:8]/5bpp8[8:8],,,,,,,,,,,,
,,,,,,,,,,7,,7,,1,8,
2b/7b,,,,1>4[8:1],,6<1[8:1],,1-5[8:1],,6,,2-6[8:1],,,,
2>5[8:1]/5<8[8:1],,,,5>8[16:4]/2,,,,8>5[8:2],,,,7,,,,
6>1[8:2],,,,6/7,,,,8p4[16:2],,,,2,,2,,1
q5[8:1]/5<7[8:1],,,,5>2[8:1],,,,1p5[8:1]/5,,,,2,,2,,
3h[8:2],,,,5<8[8:1],,2>5[8:1],,5-1[8:1],,2,,7-4[8:1],,,,
1-5[8:1]/7,,,,4>1[8:1]/1<6[8:1],,,,4<1[16:4],,,,1<4[8:2],,,,
3,,,,1<5[8:2],,,,2q6[16:3]/1,,,,2,,,,
8<4[8:2],,,,4x,3x,2x,1x,8xw4[8:1],,,,8b,,,,
2h[8:1]/6h[8:1],,,,8-4[8:1],,3>8[8:1],,8<5[8:1],,3,,4-8[8:1],,,,
1-5[8:1],,,,4>1[8:1]/1<6[8:1],,,,1>6[16:4]/4,,,,6>1[8:2],,,,
7pp4[8:3],,,,7,,,,3>6[8:2],,,,6<3[8:2],,,,
5pp4[8:2],,,,5,,,,1pp8[8:2],,,,1/8<3[8:2],,,,
6,,,,8<3[8:2],,,,3<8[8:2],,,,1-5[8:1],,,,
1,,,,4v1[8:1]/7-4[8:1],,,,4-2[8:1]/7,,,,6,,,,
7-4[8:1],,6,,3-7[8:1],,2,,5-1[8:1],,6,,2-5[8:1],,3,,
7<4[8:1],,6,,3>1[8:1],,2,,8-4[8:1],,7,,2,,2,,
5b/1b,,,,8-4[8:1]/6,,5<8[8:1],,8>3[8:1],,5,,4-8[8:1],,,,
1-5[8:1],,,,6<1[16:2]/1>4[8:1],,,,1<4[8:2],,,,4<1[8:2],,,,
2,,,,3>6[8:2],,,,6<3[8:2],,,,4pp3[16:5],,,,
4,,,,8pp7[16:5],,,,8/4pp5[32:8],,,,4,,,,
1>6[8:2],,,,6>1[8:2]/1,,,,7qq8[16:5],,,,7,,,,
3qq4[16:5],,,,3/5,,,,5<2[8:2],,,,2<5[8:2],,,,
4-8[16:2],,,,4,,,,1>4[8:1]/5<8[8:1],,,,1/5,,,,
3-8[8:1]/7,,2,,5-8[8:1],,6,,1-5[8:1],,2,,7,,,,
4b/8b,,,,6/5p1[8:1],,,,5<8[8:1]/1p3[8:1],,,,5>2[8:1],,,,
8-4[8:1]/5,,,,5>8[8:2]/8,,,,8-4[8:1],,7,,6,,,,
7-3[8:1],,,,7qq5[8:1]/4,,,,4<1[8:2]/7,,3,,2q5[16:5],,,,
2,,,,8<5[8:1],,,,8-3[8:1]/4>1[8:1],,,,4<8[8:4]/8,,,,
1,,1,,2,,2,,3,,3,,4,,4>1[8:3],5,
4,,5,,6,,6,,7,,7,,8,,8<5[8:3],1,
8,,1,,2,,2,,3,,3,,4,5,3-1[8:1],,
6,,7-4[8:1],,,,1-5[8:1],,2,,6-1[8:1],,7,,2b,,
B2,,B6,,C,,,,,,B3,,B4,,E3,,
E5,,E4,,,,,,,,B6,,B5,,E7,,
E5,,E6,,,,,,,,B2,,B6,,B3,,
B7,,C/B4/B8,
