&title=Speed of Light
&artist=塞壬唱片-MSN/DJ Okawari feat.二宮愛
&first=0
&des=喧闹法则
&lv_5=13
&inote_5=(112){4},{8},,,,,,7pp4[2:1],
,,,,,,3>5[2:1],
,,,4h[4:1],,,,4,
4pp3[2:1],,,,,,,1>8[2:1],
,,,7h[4:1],,,,1,
1pp4[2:1],,,,,,,5<3[2:1],
,,,4h[4:1],,,,4,
4qq7[2:1],,,,,,,8<1[2:1],
,,,2h[8:3],,,,,3,
3,2/5,4,,4,2/5,3-5[8:1],
,3,6,6h[4:1],,5,4/7,6,
,5,{12}4/7,{24}6,5-3[8:1],,,,,,{8}5,6,6h[4:1],
,2,3/5,4,,6,4/7,5,
{4}8w4[8:1],8bqq1[4:1],{8},2,{4}2h[4:1],
{8}1,2,3/8,5-8[8:1],,3,{4}3<6[8:1],
8h[4:1],{12}1-4[8:1],7,{24},,,,,{8}6,{4}6>3[8:1],
{8}2,1,2/8,{24}7,,6,{12}4,{24}4,5,,,{8}2/7,{24}8<4[4:1],,8,
{8}1,1,2,3,,4,5/2pp8[8:3],6h[4:1],
,,7,7h[4:1],,8,{4}6/1>5[4:1],
{8}8,8,7,{24}6,,6,{8}5,5,4/7qq1[8:3],3h[4:1],
,,2,2h[4:1],,1,{4}8/3b>6[16:5],
{2}5h[4:1],{8}5,4,7/3qq5[8:3],8h[4:1],
,,6,6h[4:1],,5,4/7,{24}8q1[16:5],,8,
{2}1h[4:1],{8}2,1,3/8pp5[8:3],7h[4:1],
{32},,,,,,,,,,,,,,,,4,3,2,1,8,7,6,5,{4}4b/7b-4[8:1],
{8}3-7[8:1],2,{16}1<4[8:1],,,1,,,,,{8}7-4[8:1],4,
3-7[8:1],2,{16}1<4[8:1],,,1,,,,,{8}7p3[8:1],3,
2-5[16:1],1,{16}2<5[8:1],,,2,,,,,,,{8}4h[4:1]/8pp5[4:1],
{24},,,,,,4,,,,,4,{12}5,{24}5,3,,,{8}2-5[8:1],5,
6-2[8:1],7,{16}8>5[8:1],,,8,,,,,{8}2-5[8:1],5,
6-2[8:1],7,{16}8-5[16:1],,,8-3[16:1],,,{8}8<3[8:1],{4}4,
{8}2-5[8:1],1,{16}2<5[8:1],,,2,,,,,,,{8}4h[4:1]/8pp5[4:1],
{24},,,,,,4,,,,,4,{12}6,{24}6,5,,,{4}3b/7b-4[8:1],
1/7,3/7-4[8:1],7/5,3/7-3[8:1],
7/1,3/7-3[8:1],7/5-1[8:1]*-2[8:1],5,
8-4[8:1],8/2,8-4[8:1],6/8pp5[16:5],
{24}3h[4:1],,,,,,,,,,,5,{12}3,{24}3,4,,,{4}6/2-5[8:1],
8/2,6/2-5[8:1],2/4,6/2-6[8:1],
2/8,6/2-6[8:1],2/4-8[8:1]*-7[8:1],4,
1-5[8:1],1/7,1-5[8:1],3/1qq4[8:3],
{32},,,,,,,,,,,,,,,,5,6,7,8,1,2,3,4,{4}5b/2b-5[8:1],
{8}6-1[8:1],7,{16}8>5[8:1],,,8,,,,,{8}2-5[8:1],5,
6-1[8:1],7,{16}8>5[8:1],,,8,,,,,{8}2q6[8:1],6,
7p3[12:1],8,{16}7>4[8:1],,,7,{32},,,,8,1,2,3,4,5,6,7,{8}8pp5[4:1],
{24},,,,,,,,,,,6,,,6,5,,,{8}4/7-4[8:1],7,
3-8[8:1],2,{16}1<4[8:1],,,1,,,,,{8}7-4[8:1],4,
3-8[8:1],2,{16}1-4[16:1],,,1-6[16:1],,,{8}1>6[8:1],{4}5,
{8}7p3[12:1],8,{16}7>4[8:1],,,7,{32},,,,8,1,2,3,4,5,6,7,{8}8pp5[4:1],
,,,,{4}4w8[8:1],4b,
6/2-6[8:1],{8}7-4[8:1],7,{4}2-6[8:1],{8}8-5[8:1],8,
{4}2-6[8:1],1>4[8:1]*<6[8:1],1,5-1[8:1],
5/4,{8}3>8[8:1],8<5[8:1],{4}5>2[8:1],8qq3[16:5],
{24}1h[4:1],,,,,,,,,,,2,{12}3,{24}3,4,,,{4}5/2,
3/7-3[8:1],{8}2-5[8:1],2,{4}7-3[8:1],{8}1-4[8:1],1,
{4}7-3[8:1],8<5[8:1]*>3[8:1],8,4-8[8:1],
4/5,{8}6<1[8:1],1>4[8:1],{4}4<7[8:1],1pp6[16:5],
{24}8h[4:1],,,,,,,,,,,7,{12}6,{24}6,5,,,{4}7b/4b,
3/8-4[8:1],8/1,5/8-4[8:1],8/7<1[16:5],
{8}3h[4:1],,,3qq6[4:1],,,{4}7,
8-4[8:1],8/3,{8}2>5[8:1],5<8[8:1],{4}8>3[8:1],
5pp2[16:5],4h[4:1],,7/3,
6/1-5[8:1],1/8,4/1-5[8:1],1/2>8[16:5],
{8}6h[4:1],,,6pp3[4:1],,,{4}2,
1-5[8:1],1/6,{8}7<4[8:1],4>1[8:1],{4}1<6[8:1],
4qq7[16:5],5h[4:1],,7b/2b,
{8}8pp5[2:1],,,,,,,4>6[2:1],
,,,5h[4:1],,,,5,
5pp4[2:1],,,,,,,3>5[2:1],
,,,6h[4:1],,,,4,
4qq1[2:1],,,,,,,8<2[2:1],
,,,1h[4:1],,,,1,
1pp8[2:1],,,,,,,7<1[2:1],
,,,8,,8h[4:1],
E
