&title=YOU & IDOL
&artist=相対性理論
&first=1.446
&des=失眠魔女
&lv_5=13
&inote_5=(125)
{1}1>8[4:6],5x>1[4:2],7v4[4:2]/1v4[4:2],{2}5-8[4:1],4-1[4:1],
{1}5<4[4:6],1x<5[4:2],2-8>1-5<6-4[16:13],
{32}B7,B8,,,{8},,,{32}B2,B3,,,{8},,,
{8}5,,36,,4,5,36,{16}3,4,
{8}
2h[4:1],1,4h[4:1],1,2h[4:1],1-5[8:1],6,1,
8,,57,3h[4:1],,4,21,7,
4p7[8:1],,6-2[8:1],,3,3>6[32:7],,4,
,8,4,6,2x-6b[8:1]/7x,3x/6x,,8,
5h[8:1]/7h[8:1],,5h[8:1]/3h[8:1],,57,8-4[8:1],3,8,
1,,42,6h[4:1],,5,78,2,
5q2[8:1],,3-7[8:1],,6,6<3[32:7],,5,
,1,1-4[8:1]/8-5[8:1],,,,3xqq8[4:2]/6x,,
{8}
4,,E6/B5,,7h[4:1],,1,2>5[4:1]/8qq6[4:1],,,,,,6,6xpp1[4:2]/3x,,
5,,E4/B4,,2h[4:1],,8,7<4[4:1]/1pp3[4:1],,,,,,3,3xqq8[4:2]/6x,,
4,,E6/B5,,7h[4:1],,1,2>5[4:1]/8qq6[4:1],,,,,,6,6xp4[8:3]/3x,,
5,,C,,1h[4:1],,5,2xpp4[4:1]/6xpp8[4:1],,,,,,6,6x<2[4:1]/3x,,
2>6[4:1],,B4/E4,,1h[4:1],,7,8>4[4:1]/6,,E7,E6,C,E4,E3,3x>7[4:1]/6x,,
7<3[4:1],,B5/E6,,8h[4:1],,2,1<5[4:1]/3,,E3,E4,C,E6,E7,6x<2[4:1]/3x,,
2>6[4:1],,B4/E4,,1h[4:1],,7,8>4[4:1]/6,,E7,E6,C,E4,E3,3x>5[8:3]/6x,,
4,,C,,8h[4:1],,4,3<6[8:1]/7>2[8:1],,,,E7/C/E3,,8x/1x,8x/1x,,
{8}
2h[8:3],,,6,5-7[8:1],,,4,3h[8:3],,,7,6-8[8:1],,,5,
4h[8:3],,,8,7-1[8:1],,,6,5h[8:3],,,1,8-4[8:1],,,2,
{4}3pp3[16:5]*qq3[16:5],,,{8}18,7,{4}6qq6[16:5]*pp6[16:5],,,{8}81,2,
{8}3qq3[16:5],,,7,6pp6[16:5],,B5/B4/E5/A5/A4,,
{8}3,,1b/8b,,6,1x/8x,1x/8x,,
{8}
7-4[8:1],4q1[8:1],3,1,2-6[8:1],6p1[8:1],7,1,
8-3[8:1],3>5[4:1],4,5-8[8:1],,3,1,7,
8q5[8:1]/2-5[8:1],,82,,8v6[8:1]/2-6[8:1],,82,,
1v4b[8:1]/7v4b[8:1],,1>8[8:3]/7,,5,,1,,
3-8[8:1],8q5[8:1],7,5,6-2[8:1],2q7[8:1],1,7,
8-4[8:1],4>6[4:1],5,6-2[8:1],,5,3,1,
8-4b[8:1],2,4-8[8:1],2,8-4b[8:1],2,4pp4[4:1],,
3qq5b[16:5],3x,,,{16}8xh[16:3],,,6h[16:3],,,4,,
{8}
2-5[8:1],5p8[8:1],6,8,7-3[8:1],3q8[8:1],2,8,
1-6[8:1],6<4[4:1],5,4-1[8:1],,6,8,2,
1-4[8:1]/7q4[8:1],,17,,1-5[8:1]/7v5[8:1],,17,,
8v5b[8:1]/2v5b[8:1],,8<1[8:3]/2,,4,,8,,
6-1[8:1],1p4[8:1],2,4,3-7[8:1],7p2[8:1],8,2,
1-5[8:1],5<3[4:1],4,3-7[8:1],,4,6,8,
1-4b[8:1],7,5-8[8:1],7,1-4b[8:1],7,5qq5[4:1],,
6pp4b[16:5],6x,,,{16}2x-6[8:1],,,5pp4>6b[16:13],{8}2,7,
{4}Cf,,,5>2[8:1],
{4}B7/B6/E7/D7/5x<8[8:1],B3/B4/E4/D4/5x>2[8:1],B7/B6/E7/D7/5xw1[8:1],,
{8}4q5<8[8:3],,8,8>3[8:1],,,4<7[8:1],,
{4}B2/B3/E3/D3/4x>1[8:1],B6/B5/E6/D6/4x<7[8:1],B2/B3/E3/D3/4xw8[8:1],,
{8}5p4>1[8:3],,1,1<6[8:1],,,5v2[8:1],,
{4}B7/B6/E7/D7/5x<8[8:1],B3/B4/E4/D4/5x-1[8:1],B7/B6/E7/D7/5xw1[8:1],,
{8}4q5<8[8:3],,8,8>3[8:1],,,4v7[8:1],,
{4}B2/B3/E3/D3/4x>1[8:1],B6/B5/E6/D6/4x-8b[8:1],
(111.5)
{4}B2/B3/E3/D3/4xw8[8:1],,{24}7xv4v1>2-4-6<7[4:9],8x,1x,
