&title=ネクラチューンサーカス
&artist=かいりきベア
&first=0.11
&des=なきヂット
&lv_5=13+
&inote_5=(254)
{1},
{4}Ch[1:3],,E8,,E7,,E6,,E1,,E8,,
{8}7xh[2:1],E4,E5,E6,E7,E8,E1,E2,
{8}2x/5x,,7/4,7x/4x,,8/1,8x/1x-4-8-5[8:5],,
{8}7,,7,,6x,6xh[8:3],,,
{8}1^4[8:1],,1,,7,7,3,3,6^1[8:1],,3,,4-1[8:1],,5,,
{8}5V74[4:1],,2,,1,1,2-7[8:1],,2/6-3[8:1],,6,,1,,1h[4:1],,
{8}8^5[8:1],,8,,2,2,6,6,3^8[8:1],,6,,5-8[8:1],,4,,
{8}4V25[4:1],,7,,8,8,7-2[8:1],,7/3-6[8:1],,3,,8,,8h[4:1],,
{8}2h[16:2],,,7h[16:2]/2h[16:2],,,6/3,,
{16}B4,B3,B2,,,,B5,B6,B7,,,,8/1,,,,
{8}2,7,2,7,{16}2,3,4,5,6,7,8,1,
{8}2/6h[4:2],,C,,E2/B2,E6/B6,E4/B3,E8/B7,
{4}2,2/7,2,2/7,{8}2,E6,2,E8,2,,7/2,,
{8}2h[4:1],,7h[4:1],,1h[4:1],,8h[4:1],,
{8}2-6[8:1],,7-3[8:1],,1-5[8:1],,1x,,
{4}6,6/5,6,6/5,
{4}3,3/4,3,3/4,
{4}7/E2,7/E3,7/E4,7-3^1-5[4:3]/E5,4,4,4h[4:1],A5f,
{8}6x,,3x,,7,7,2-4[8:1],,7-1[8:1]/2,,7,,2^1-7[8:1],,6,,
{8}6,6,4,6,3,3,5^8[8:1],3,5^2[8:1],,5-1[8:1],,5x,,C,,
{8}3x,3,6x,,2,2,7-5[8:1],,2-8[8:1]/7,,2,,7^8-2[8:1],,3,,
{8}3,3,5,3,6,6,4^1[8:1],6,4^7[8:1],,4-8[8:1],,4x,,C,,
{8}E7/B6f/E6,,2,,E3/B3f/E4,,7,,82,,3,3,4h[4:1],,3,3,
{4}5^8[4:1],3,4^1[4:1],6,
{8}6,,5/7,5/7,4h[4:1]/8,,Ch[4:1],,
{4}2b,3/4,7b,6/5,
{8}4,,6,7,8^7-5[8:1]*-5[8:1],,,,
{4}3h[4:1],2h[4:1],1h[4:1],8h[4:1],
{8}1,1,8,8,1w5b[8:1],,{32},Cf,,,,,,,
{8}3,,6,75,,3,42,,7,68,2,13,7-3b[8:1],,1>5[2:1],,
{4},5<1[2:1],,1V35[2:1],,5V71[2:1],,1,
{8}5,,6/4,6/4,,5/3,5/3-8-5[8:3],,,,6x,6x,7x,,7-4[8:1],,
{4}7b/3-8[8:1],3/6-1[8:1],6/2-5[8:1],2/8^5[8:1],8^3[8:1],8w4b[8:1],{32}8,Cf,,,,,,,{4},
{8}3,3,4,2,6,6,5,7,
{8}1b/2b,,8b-4[8:1]/7b-4[8:1],,A7/A8f,,
{8}2-5[8:1],,
{4}2/6-1[8:1],6/3-8[8:1],3/7-4[8:1],7/1^4[8:1],1^6[8:1],1w5b[8:1],{32}1,Cf,,,,,,,{4},
{8}6,6,5,7,3,3,4,3x/4x,,6/5,6x-8[8:1]/5x-1[8:1],,6/5,,3,,
{8}4bx/2bx,,5b/3b,5b/3b,,7b/5b,7b/5b,,6b/4b,,8b-5[8:1]/2b-5[8:1],,8b/2b,,6x/4x,,
{8}3-5[8:1],5-3[8:1],3V15[4:1],,6,,7,7,,8/4,8^7-5[8:1]/4^3-1[8:1],8x/4x,8x/4x,,C,,
{8}3bx,,4b/2b,4b/2b,,6b,7b/5b,,
{8}2b/1b,,7b/8b-5-3[4:1],,8b/1b,,2,,
{8}2x,4,2,5,2x,6,2,7,
{4}8/1,8^5[8:1]/1^4[8:1],8b/1b,,
{8}Ch[4:4],,5,5,,6,6,,7,,{32}8x,7x,6x,5x,4x,3x,2x,1x,8x-4[8:1],,,,,,,,{8}8b,,
{1}Cfh[1:1],
{4}5x<1<5[4:13],,4,,4,,3,,3,,2,,2,,C,B3/E4,
{4}4x>8>4[4:13],,5,,5,,6,,6,,7,,7,,C,B6/E6,
{4}6xh[2:1],,,1-4[8:1],6-1[8:1],3-6[8:1],7-2[8:1],4,
{8}4,4,8,8,3,3,7,7,6/2,,7/3,,6-8[8:1]/2-4[8:1],,6/2,,
{8}5x,5,6,6,{32}1,2,3,,,,,,{8}6h[8:1],,
{8}6,6,7,7,{32}2,3,4,,,,,,{8}7h[8:1],,
{12}1,8,1,8,2,7,2,7,3,6,3,6,
{8}4>8>4[8:3],,6xh[4:1],,,,C,,
(164)
{8}2h[4:1],4,5,6,7h[4:1],5,4,3,2h[4:1],5,7h[4:1],4,B2/B3/E3,E7/B7/B6,B8/B1/E1f,,
{8}6h[4:1],8,1,2,3h[4:1],1,8,7,6h[4:1],1,3h[4:1],8,Ch[4:2],,,,
(254)
{4}1>1[4:3],,,,
{4}5h[1:1],,4,,4h[2:1],,5,6V85-1-4[4:4],
{4}A6f,,,,
{8}3xh[4:1],,,3x,,,,,
{8}E2,,E3,,E4,,E5,,E6,,E7,,E8,,E1,,
{4}1b,,2b,,3b,,4b/2b,{8}3-8[8:1],,
{4}3b/7-4[8:1],7/2-5[8:1],2/6-1[8:1],6/4^1[8:1],4^7[8:1],4w8b[8:1],{32}4,Cf,,,,,,,{4},
{8}7,7,8,6,2,2,1,3,
{8}5b/6b,,4b-8[8:1]/3b-8[8:1],,A3/A4f,,
{8}6-1[8:1],,
{4}6/2-5[8:1],2/7-4[8:1],7/3-8[8:1],3/5^8[8:1],5^2[8:1],5w1b[8:1],{32}5,Cf,,,,,,,{4},
{8}2,2,1,3,7,7,8,7x/8x,,2/1,2x-4[8:1]/1x-5[8:1],,2/1,,7,,
{24}8bx,7bx,6bx,,,,
{8}
3,2b/4b,,6,7b/5b,,
{24}7/2,3,4,5,6,7,8,1,2,3,4,5,{32}6b/B6f,C,B2,,,,,,,,,,,,,,
{8}7-5[8:1],8-4[8:1],7,8,1-5[8:1],2-4[8:1],1,2,7h[4:1],E4,E3,E2,E1/7-4b[8:1],,,,
{8}2bx,,6,5b/7b,,4/2,4b/2b,,7b/8b,,8b/1b-5^6[4:1],,1b/2b,,3,,
{32}2,3,4,,,,,,{8}7,7,{32}1,2,3,,,,,,{8}6,6,
{4}5/4,5^6-8[8:1]/4^3-1[8:1],5b/4b,,
{8}7-4b[8:1],,7,1-5b[8:1],,8,8h[4:1],,
{32}1x,2,3,4,5x,6,7,8,1x,2,3,4,5x,6,7,8,
{4}1xq5[8:1]/5xq1[8:1],
{24}1bp7[4:8]/5bp3[4:8],Cf`B7/B2/B6/B3,,,,,
{4},,,,,,,,,,,,
{4}3,2,1-5b[8:1],8/1,
{8}7-4[8:1],,2h[4:1],,5x,5,6,6,
{8}2-5[8:1],,7h[4:1],,4x,4,3,3,
{4}7-3[8:1],8-4[8:1],1-5[8:1],2,
{8}6b-4[8:1],,3,2-5[8:1],,7,8-4[8:1],,
{8}3b-5[8:1],,6,7-4[8:1],,2,1-5[8:1],,
{8}7b-2[8:1],,4x,,3-6[8:1],,8x,,
{8}8,,7h[4:1],,{24}1,2,3,4,5,6,7,8,1,2,3,4,5b,
E
&inote_6=(254)
{1},
{4}Ch[1:3],,E8,,E7,,E6,,E1,,E8,,
{8}7xh[2:1],E4,E5,E6,E7,E8,E1,E2,
{8}2x/5x,,7/4,7x/4x,,8/1,8x/1x-4-8-5[8:5],,
{8}7,,7,,6x,6xh[8:3],,,
{8}1^4[8:1],,1,,7,7,3,3,6^1[8:1],,3,,4-1[8:1],,5,,
{8}5V74[4:1],,2,,1,1,2-7[8:1],,2/6-3[8:1],,6,,1,,1h[4:1],,
{8}8^5[8:1],,8,,2,2,6,6,3^8[8:1],,6,,5-8[8:1],,4,,
{8}4V25[4:1],,7,,8,8,7-2[8:1],,7/3-6[8:1],,3,,8,,8h[4:1],,
{8}2h[16:2],,,7h[16:2]/2h[16:2],,,6/3,,
{16}B4,B3,B2,,,,B5,B6,B7,,,,8/1,,,,
{8}2,7,2,7,{16}2,3,4,5,6,7,8,1,
{8}2/6h[4:2],,C,,E2/B2,E6/B6,E4/B3,E8/B7,
{4}2,2/7,2,2/7,{8}2,E6,2,E8,2,,7/2,,
{8}2h[4:1],,7h[4:1],,1h[4:1],,8h[4:1],,
{8}2-6[8:1],,7-3[8:1],,1-5[8:1],,1x,,
{4}6,6/5,6,6/5,
{4}3,3/4,3,3/4,
{4}7/E2,7/E3,7/E4,7-3^1-5[4:3]/E5,4,4,4h[4:1],A5f,
{8}6x,,3x,,7,7,2-4[8:1],,7-1[8:1]/2,,7,,2^1-7[8:1],,6,,
{8}6,6,4,6,3,3,5^8[8:1],3,5^2[8:1],,5-1[8:1],,5x,,C,,
{8}3x,3,6x,,2,2,7-5[8:1],,2-8[8:1]/7,,2,,7^8-2[8:1],,3,,
{8}3,3,5,3,6,6,4^1[8:1],6,4^7[8:1],,4-8[8:1],,4x,,C,,
{8}E7/B6f/E6,,2,,E3/B3f/E4,,7,,82,,3,3,4h[4:1],,3,3,
{4}5^8[4:1],3,4^1[4:1],6,
{8}6,,5/7,5/7,4h[4:1]/8,,Ch[4:1],,
{4}2b,3/4,7b,6/5,
{8}4,,6,7,8^7-5[8:1]*-5[8:1],,,,
{4}3h[4:1],2h[4:1],1h[4:1],8h[4:1],
{8}1,1,8,8,1w5b[8:1],,{32},Cf,,,,,,,
{8}3,,6,75,,3,42,,7,68,2,13,7-3b[8:1],,1>5[2:1],,
{4},5<1[2:1],,1V35[2:1],,5V71[2:1],,1,
{8}5,,6/4,6/4,,5/3,5/3-8-5[8:3],,,,6x,6x,7x,,7-4[8:1],,
{4}7b/3-8[8:1],3/6-1[8:1],6/2-5[8:1],2/8^5[8:1],8^3[8:1],8w4b[8:1],{32}8,Cf,,,,,,,{4},
{8}3,3,4,2,6,6,5,7,
{8}1b/2b,,8b-4[8:1]/7b-4[8:1],,A7/A8f,,
{8}2-5[8:1],,
{4}2/6-1[8:1],6/3-8[8:1],3/7-4[8:1],7/1^4[8:1],1^6[8:1],1w5b[8:1],{32}1,Cf,,,,,,,{4},
{8}6,6,5,7,3,3,4,3x/4x,,6/5,6x-8[8:1]/5x-1[8:1],,6/5,,3,,
{8}4bx/2bx,,5b/3b,5b/3b,,7b/5b,7b/5b,,6b/4b,,8b-5[8:1]/2b-5[8:1],,8b/2b,,6x/4x,,
{8}3-5[8:1],5-3[8:1],3V15[4:1],,6,,7,7,,8/4,8^7-5[8:1]/4^3-1[8:1],8x/4x,8x/4x,,C,,
{8}3bx,,4b/2b,4b/2b,,6b,7b/5b,,
{8}2b/1b,,7b/8b-5-3[4:1],,8b/1b,,2,,
{8}2x,4,2,5,2x,6,2,7,
{4}8/1,8^5[8:1]/1^4[8:1],8b/1b,,
{8}Ch[4:4],,5,5,,6,6,,7,,{32}8x,7x,6x,5x,4x,3x,2x,1x,8x-4[8:1],,,,,,,,{8}8b,,
{1}Cfh[1:1],
{4}5x<1<5[4:13],,4,,4,,3,,3,,2,,2,,C,B3/E4,
{4}4x>8>4[4:13],,5,,5,,6,,6,,7,,7,,C,B6/E6,
{4}6xh[2:1],,,1-4[8:1],6-1[8:1],3-6[8:1],7-2[8:1],4,
{8}4,4,8,8,3,3,7,7,6/2,,7/3,,6-8[8:1]/2-4[8:1],,6/2,,
{8}5x,5,6,6,{32}1,2,3,,,,,,{8}6h[8:1],,
{8}6,6,7,7,{32}2,3,4,,,,,,{8}7h[8:1],,
{12}1,8,1,8,2,7,2,7,3,6,3,6,
{8}4>8>4[8:3],,6xh[4:1],,,,C,,
(164)
{8}2h[4:1],4,5,6,7h[4:1],5,4,3,2h[4:1],5,7h[4:1],4,B2/B3/E3,E7/B7/B6,B8/B1/E1f,,
{8}6h[4:1],8,1,2,3h[4:1],1,8,7,6h[4:1],1,3h[4:1],8,Ch[4:2],,,,
(254)
{4}1>1[4:3],,,,
{4}5h[1:1],,4,,4h[2:1],,5,6V85-1-4[4:4],
{4}A6f,,,,
{8}3xh[4:1],,,3x,,,,,
{8}E2,,E3,,E4,,E5,,E6,,E7,,E8,,E1,,
{4}1b-5[8:1]b,,2b-6[8:1]b,,3b-7[8:1]b,,Cf,{8}3-8[8:1],,
{4}3b/7-4[8:1],7/2-5[8:1],2/6-1[8:1],6/4^1[8:1],4^7[8:1],4w8b[8:1],{32}4,Cf,,,,,,,{4},
{8}7,7,8,6,2,2,1,3,
{8}5b/6b,,4b-8[8:1]/3b-8[8:1],,A3/A4f,,
{8}6-1[8:1],,
{4}6/2-5[8:1],2/7-4[8:1],7/3-8[8:1],3/5^8[8:1],5^2[8:1],5w1b[8:1],{32}5,Cf,,,,,,,{4},
{8}2,2,1,3,7,7,8,7x/8x,,2/1,2x-4[8:1]/1x-5[8:1],,2/1,,7,,
{24}8bx,7bx,6bx,,,,
{8}
3,2b/4b,,6,7b/5b,,
{24}7/2,3,4,5,6,7,8,1,2,3,4,5,{32}6b/B6f,C,B2,,,,,,,,,,,,,,
{8}7-5[8:1],8-4[8:1],7,8,1-5[8:1],2-4[8:1],1,2,7h[4:1],E4,E3,E2,E1/7-4b[8:1],,,,
{8}2bx,,6,5b/7b,,4/2,4b/2b,,7b/8b,,8b/1b-5^6[4:1],,1b/2b,,3,,
{32}2,3,4,,,,,,{8}7,7,{32}1,2,3,,,,,,{8}6,6,
{4}5/4,5^6-8[8:1]/4^3-1[8:1],5b/4b,,
{8}7-4b[8:1],,7,1-5b[8:1],,8,8h[4:1],,
{32}1x,2,3,4,5x,6,7,8,1x,2,3,4,5x,6,7,8,
{4}1xq5[8:1]/5xq1[8:1],
{24}1bp7[4:8]/5bp3[4:8],Cf`B7/B2/B6/B3,,,,,
{4},,,,,,,,,,,,
{4}3,2,1-5b[8:1],8/1,
{8}7-4[8:1],,2h[4:1],,5x,5,6,6,
{8}2-5[8:1],,7h[4:1],,4x,4,3,3,
{4}7-3[8:1],8-4[8:1],1-5[8:1],2,
{8}6b-4[8:1],,3,2-5[8:1],,7,8-4[8:1],,
{8}3b-5[8:1],,6,7-4[8:1],,2,1-5[8:1],,
{8}7b-2[8:1],,4x,,3-6[8:1],,8x,,
{8}8,,7h[4:1],,{24}1,2,3,4,5,6,7,8,1,2,3,4,5b,
E
