&title=ペガサス幻想
&artist=MAKE-UP
&first=0.040000007
&des=Jupiter
&lv_5=13
&inote_5=(164.5){4},,,,,,{2}1b/5bpp4>6[2:3],
{8},,,,,,,,,,,4,
{2}4>6[4:3],
{8},,,5h[4:1],{16},,2,4,3,4,2,5,
4,6,5,7,{4}4-1b[8:1],4b,{8}8/7,2/6V47[4:1],
,3,2,1-5[8:1],,5,6,7>2[8:1],
,1,{4}3h[4:1],{8}4q5[4:1],5,6,7,
,8-4V25<3[1:1],7,8/3,{16},,,,,,,,,,,,,,,,4,
5,4,5,{4}4-1[8:1],
,,4/7h[4:1],5,
{8}6h[4:1],5,{4}5,6/7h[4:1],4,
{8}5,5,{4}4pp5[8:3],{2}6h[4:1],
{8}3h[4:1],4,{4}4,5/2h[4:1],4,
{8}7h[4:1],6,5>2[8:1],8,,,{4}7,
{8}6h[4:1],5,4>1[8:1],7,,,{4}6,
{8}6h[4:1],5,4,3>8[4:1],,8<5[16:3],,4h[4:1],
,3,2/5,6b/1bs5[16:3],,,,6h[4:1],
,5,{4}4/7,5/2h[4:1],4,
{8}3h[4:1],4,{4}4,3/2h[4:1],5,
{8}4,4,{4}5v3[4:1],{8}6h[4:1],,,7-5[8:1],
,4,{4}4,5/7h[4:1],6,
{8}8,1,2,3<6[4:1],,6<3[8:3],,8h[4:1],
,,{4}8-3[8:1],4V61[4:1],1-4[8:1],
{2}7-3[8:1],{4}5h[4:1],4h[4:1],
3h[4:1],{8}6,7/4,{16},,3,4,{8}2,{16}6,5,
{8}8,{16}3,4,2,4,1,4,{4}8>3[8:1],{8}6,7-4[8:1],
,4V61[4:1],3,2,{4}2h[4:1],{8}1,8/3,
,3,4,2/5,{4}7-3[8:1]*-4[8:1],7,
8p4[8:1]*v5[8:1],8<1[8:3],{2}3h[4:1],
{8}8h[4:1],6,5,4V62[4:1],,2-8[8:1],,7,
,5-8[8:1],8-4[8:1],4-1[8:1],,,,6/2-6[8:1],
,8,{4}1h[4:1],5>2[4:1],2<7b[4:1],
7<5[16:3],4,{16}3,4,3,5,4,7,5,6,
{4}1,7<4[8:1],{8}3/7,1h[4:1],{24},,,7b,6,5,
{4}4-8b[8:1],{8}3,3,{4}2-6[8:1],5-8[8:1],
1<6[8:1],2/1,4q5[8:3],{8}6,5<3[8:3],
,,,,6,6,5,7/4,
3,5/2,{4}6-3[8:1],{8}3/6,1h[4:1],{24},,,8b,7,6,
{4}5-1b[8:1],{8}4,3,{4}2-6[8:1],2/8-3[8:1],
{8}5,4V68[4:1],,8>4-6[8:3],,,{4}6,
{8}7,7,7/5,8,3/4,1v6[8:1]*v4V25[16:5],,1b,
,,{4}7<4[8:1],{8}2/7,8<5[8:1],{24},,,1b,2,3,
{4}4qq5b[24:7],{8}7,7,{4}8-4[8:1],5-1[8:1],
7-4[8:1],7/3>5[8:3],{8}6,5p4[8:3],,8h[8:3],
,,,3,4/2,3,2/5,3,
6/2,3,2-5[8:1],4,6/2,8>3b[8:1],{24},,,7b/8,6,5,
{4}4,{8}7-4[8:1],5,3/7,1<6b[8:1],{24},,,2b/1,3,4,
{2}5s1[6:1],3h[4:3]/7h[8:5],
{4},7,{2}6bpp6[4:3],
{6}3,3,4,5pp8[3:2],,,2,
2,3,4pp1[24:13],,,{2}8,
{8}6/5,7/4,,1/8,
7/2,6/3,{4}5/4,{24}8b/2b,3,4,5,,,{8}7,{24}7b/1b,2,3,
{8}4,6,{24}8b/6b,1p4q1[24:73],2,3>5p8b[8:23],
E
