&title=DOMiNUS_GRAiL
&artist=xi
&first=0.4
&des=Zhong
&des_5=Zhong
&lv_5=14+
&inote_5=
(190){4},{2},,,{16}E3/E7,
E4,{8}E5,
{1},{4}5,
6,7,{16}8h[1:1]/E6,E5,{8}E4,
{1},{4}4,
3,2,1h[1:1],
,{8}D8,B8,D7,B6,{4}B5,
2,3/4,4/5,6/5h[4:7],
,{8}6,7,{4}8,{8}E1,E8,
E7,E6,E5,E4,E3,E2,{32}1bx-5b[2:3],8x/2x,7/3,6/4,{8}5,
{2},7h[1:1],
{4},,,{16}6,5,6,5,
{4}7x/4x-6-2-8-3[2:3],8,8,8,
7h[8:1],7h[8:1],6h[8:1],6h[8:1],
2x/5x-3-7-1-6[2:3],1,1,1,
2h[8:1],2h[8:1],3h[8:1],{16}3h[8:1],{8},{16}5,
{8}5-3[8:1],3-7[8:1],2,1,{4}8>3[8:1],{16}8,{8},{16}6,
{8}6-8[8:1],5,4,3,1/2-4[8:1],8,7,6,
{16}6-1[8:1],4,7,5,{4}6,{16}3-8[8:1],5,2,4,{4}3,
{12}5h[4:1],4,3,2h[4:1],1,8,7h[4:1],6,5,4-8[8:1],5,3,
{4}2h[8:1],{8}7,{16}6,5,{8}6,{16}3,5,{8}4,{16}7,5,
6,4,5,2,7,4,5,3,{32}6x/1x,2x,3x,4x,5x,6x,7x,8x,1x,2x,3x,4x,5x,6x,7x,8x,
{2}6xh[4:1]/1x-3-5-2b[2:1],{16}E7,B7,B8,E1,{4}A1f,
{8}5/6v8[8:1],8/2-5[8:1],6,2,7-5[8:1],{32}4h,3,{16}2,{8}7,{32}1h,2,{16}3,
{8}6-1[8:1],4-8[8:1],6<4[4:1],4,6,{24}E1,E2,E3,{4}E4,
{8}4/7,{16}6,5,6,4,{8}7,1/6,{16}2,5,3,4,{8}3,
2/5,{16}2/5,6,1,7,8,7,{8}1-5[8:1],2/8,{4}1,
{24}8bx/3bx>8[8:1],7,6,5h[8:1],{12},{8}3bx,{24}4bx,5,6,{8}7bx-3[8:1],8bx,{4}7bx/1bx,
{24}1bx/6bx<1[8:1],2,3,4h[8:1],{12},{8}6bx,{24}5bx,4,3,{8}2bx-6[8:1],1bx,{4}2bx/8bx,
{8}7,7h[8:1],{16}5,6,4,6,{8}2,2h[8:1],{16}4,3,5,3,
{8}6h[8:1],{24}4,3,2,{8}1-4[8:1],6-3[8:1],1,6,{24}1bx,8,7,6,5,4,
{4}3h[4:1],{16}7,1,6,8,7-4[8:1],1,6,8,{8}7,2,
2-8[8:1],8-4[8:1],2,6-2[8:1],3-8[8:1],6>3[8:1],3,6,
{4}1h[4:1],{16}2,3,4,5,3,4,5,6,4,5,6,7,
3,3,1,1,2,2,8,8,{8}3h[8:1],{32}8,7,6,5,{8}3h[8:1],{32}8,7,6,5,
{4}4bx/3bxh[8:1],4,{8}4,4,5,6,
{24}7/8,1,2,3,{12},{16}7,{8},{16}3,7/3,{8},{16}4,{4}7/4,
6/5h[2:1],6,{8}6,5,6,4,
{4}6/3,{24}6/4,3,2,1h[8:1],{12},{8}6,{16}1,7,{8}8,7,
{4}5bx/6bxh[8:1],5,{8}5,5,4,3,
{24}2/1,8,7,6,{12},{16}2,{8},{16}6,2/6,{8},{16}5,{4}2/5,
3/4h[2:1],3,{8}3,4,3,5,
{4}3/6,{24}3/5,6,7,8h[8:1],{12},{8}3,{16}2,1,{8}2,3/8,
4>1[8:1],7-3[8:1],4-8[8:1],7-5[8:1],4w8[8:1],7,{4}4,
{8}5-1[8:1],2-7[8:1],5<8[8:1],2,{4}5-2[8:1]*>2[8:1],5,
{8}1>4[8:1],6-2[8:1],1-5[8:1],6-8[8:1],1w5[8:1],6,{4}1,
{8}8-4[8:1],3-6[8:1],8<5[8:1],3,{4}8-3[8:1]*>3[8:1],8,
1<2[2:1],5h[2:1],{2},{16}6,
6,1,1,7,7,2,2,8,8,3,3,1,1,4,4,
{8}8-4[8:1],3,{4}8b/2b,{8}1-5[8:1],6,{4}1b/7b,
{16}8,1,8,2,8,3,8,4,{8}8,{24}4x-8b[8:1],3,2,7x/1x,6,5,4x,{12},{16}1x,
{8},{16}7,{4}7,{16}2h[16:3],{8},{16}1,{8}3,7,
{12}4/6,6,6,5/3,3,3,1/7,7,7,8/2,2,2,
{4}1x-3[8:1]/6x>4q8[4:1],1-5[8:1],1,{24}8bx,7,6,5,4,3,
{4}1-5[8:1],1,{8}3,{24}5,6,7,{8}8-4[8:1],2h[8:1],
{16}8,{8},{16}1,{4}1,{16}7h[16:3],{8},{16}8,{8}6,2,
{12}5/3,3,3,4/6,6,6,8/2,2,2,1/7,7,7,
{4}8x-6[8:1]/3x<5p1[4:1],8-4[8:1],8,{24}1bx,2,3,4,5,6,
{4}8-4[8:1],8,{12}3,5,3,6,5,6,
{4}4-1[8:1],4q8[8:1]*<7[8:1],{2}4-2-8-6-4b[1:1],
{4}B2,B8,B6,B4,
5-8[8:1],5p1[8:1]*>2[8:1],{2}5<5b[1:1],
{16}E6,B6,{8},{16}E8,B8,{8},{16}E2,B2,{8},{16}E4,B4,{8},{4}7/8,
6,4,{16}7,5,{8}5,
{4}8q4[8:1],8/5-1[8:1],5,{16}8-4[8:1],2,{8}2,
{4}1b/8b,{16}B1,B2,B3,B4,B5,B6,B7,B8,B1,B2,B3,B4,
E5/D5,E6/D6,E7/D7,E8/D8,E1/D1,E2/D2,E3/D3,E4/D4,{4}5bx-1[8:1]/6bx-1[8:1],6bxp2[8:1]/5bx>2[8:1],
6b/5b,{8}7,7,7/2,{16}7,3,{8}7,7/4,
4,4,4/7,{16}4,6,{8}4,{16}5,4,{4}3bx/6bx,
{24}B6,B5,E6,B3,B4,E4,B7,B6,E7,B2,B3,E3,B8,B7,E8,B1,B2,E2,D8/E8,A7/E7,A8/B8,D2/E2,A2/E3,A1/B1,
{16}6bx,5x,4x,3x,7bx,6x,5x,4x,8bx,7x,6x,5x,1bx,8x,7x,6x,
{8}5xh[8:5],E7,,E1,E8,E7,,6/5-8[8:1],
,5/4p8[8:1],,{16}4/3,2,,,,,,,,8,
,{48}1/7,,2,,3,,{16}4xh[2:1],,,,E1,,E2,,E3,,,,4/3-8[8:1],
,2,,3/4-7[8:1],,5,,4/3,,,,,,1,,8,
,2,,4>1[8:1]/7<4[8:1],,,,7b/4b,{4},{8}5h[8:1],{24}2,1,8,
7,6,5,4,3,2,{4}1-5[8:1],1b/8-6[8:1],8b/2-4[8:1],
2b/1w5[8:1],1b,{16},7,7,5,5,6,6,4,
4,5,5,3,3,4h[4:1],,,,3b,{24},,,,,{6}5b/4b,
{8}3b/6b,6b/3b,{12}1b,8b,2b,{16},,,2,2,{32}8,7,{16}6,1,
1,{32}7,6,{16}5,8,8,7,1,6,2,5,3,4,5,3,6,2,
7,1,8,2,7,3,6,4,5,6bx>3[8:1]/3bx>8[8:1],,,,6b/3b,{8},{16}7,
7,{32}1,2,{16}3,8,8,{32}2,3,{16}4,1,1,2,8,3,7,4,6,
5,4,6,3,7,2,8,1,7,2bx-4[8:1]/6bx-4[8:1],,,,2b/6b,{8},{16}1,
6,2,7,3,8,2,7,1,6,2,8,1,7,4,6,
3,5,2,7,1,8,4,5,3,{48}6,6x,,{8}7x/2x,{24}1x,8x,1x,8x,1x,8x,
1x,8x,1x,8x,1x,8x,1x,8x,1x,8x,1x,8x,1x,8x,1x,7bx/2bx,,,,,,{8}8x<5[8:1]/2x>5[8:1],
,8x-4[8:1]/2x-6[8:1],,2b/8b,{16},,,{32}8bx/2xh,7,6,5,{16}4-7[8:1],,1xh,
,{32}4bx/8xh,1,2,3,{16}4-1[8:1],,8xh,,4bx,,,,{32}4bx/6xh,3,2,1,{16}8-3[8:1],,5xh,
,{32}8bx/4xh,5,6,7,{16}8-5[8:1],,4xh,,8bx>5[2:1],,,,8b/7h[8:3],,,,,,,,,,4,
,3,,2,,1h[4:1],,,,{48}6bx,,5,
,4,,3,,2,,1,,{32}8/B8,C,{16}B4,{8},{16}2h[4:1],,,,7<4[8:1],,8,,7,
,1,,{48}2<7[8:1],,3,,4,,{16}5,,2,,{48}6-8[8:1],,5,,4,,{16}3,,6,,{48}1-5[8:1],,2,
,3,,{16}4,,1-3[8:1],,,,1,,,,7q6[8:3],,,,5,
,4,,3,,2,,1/5h[8:1],,,,{32}1bx/7xh,2,3,4,{16}5-2[8:1],,8xh,
,{32}5bx/1xh,8,7,6,{16}5-8[8:1],,1xh,,5bx,,,,1-5[8:1]/2-5[8:1],,3/8,,,,,,8-4[8:1]/7-4[8:1],
,6/1,,,,,,6-1[8:1]/5v8[8:1],,7/4,,,,,,3-8[8:1]/4v1[8:1],
,2/5,,,,,,7<4[8:1],,1,,7,
,3-8[8:1],,5,,3,,6-2[8:1],,,,6-8[8:1]*-4[8:1],,,,6w2[8:1],
,,,6,,,,{48}4/8,,1,,2,,3,,4,,5,,{16}6h[4:3],,,,8-2[8:1],
,,,8-4[8:1],,,,8,,,,7-3[8:1]/5-1[8:1],,7/5,,,,,,4-7[8:1]/2-7[8:1],
,2/4,,,,,,1,6,5,6,2,
6,5,6,3,6,5,6,4,6,5,6,3bh[6:1],{48},4b,{16},{48}4b,{16},6bh[6:1],
{48},5b,{16},{48}5b,{16},2bh[6:1],{48},4b,{16},{48}4b,{16},7bh[6:1],{48},5b,{16},{48}5b,{16},{48}B6,,B7,,B8,,B1,,B2,,B3,,E4,,E5,
,E6,,E7,,E8,,E1,,{32}E2,D3,D4,D5,D6,D7,D8,D1,1x,2x,3x,4x,5x,6x,7x,8x,1bx,E1/E2,B8/B2,B7/B3,{16}E7f/E4f,{2},{16}4,
4h[8:1],,,,7,5,6,5,6,
4,5,4,5,3,4,3,4,2,4,1,A1,B1,C,B5,A8/A5,
B8,C,B4,D1,D2,D3,D4,D1/D5,D8,D7,D6,2x/4x,,3,4,2,
6,4,5,7,,4-8[8:1],,8,,4,,6,,6,,6/1,
,6,,6b/2b,{8},3b/4b,{16},6b/5b,,{48}8bv6[8:1]/1bv3[8:1],,2/7,,3/6,,{16}4/5,,1>4[8:1]/8<5[8:1],
,,,8z4[8:1]/1s5[8:1],,,,8/1,,,,6,6,1,1,7,
7,2,2,8,8,3,3,1,1,4,4,{48}8bx,,7,,6,,5,,4,,3,,2,,1,
,8,,7,,6,,5,,4,,3,,2,,1,,8,,7,,6,,5,,4,,3,,2,,1,,8/4bx,,5,,6,,7,,8,,1,,2,,3,
,4,,5,,6,,7,,8,,1,,2,,3,,4,,5,,6,,7,,8,,1,,2,,3,,4/8bx,,7,,6,,5,,4,,3,,2,,1,
,8,,7,,6,,5,,4,,3,,2,,1,,8,,7,,6,,5,,4,,3,,2,,1,,{16}8bxh/4bxh,,7xh/3xh,,6xh/2xh,
,5xh/1xh,,8xh/4xh,{32}1bx,2,3,4,5,6,7,8,A2/A8,B8/B2,Cf,B6/B4,{8}A6/A4,{16},,,3bh[16:13],
,,,,,5b,{8},,,{4}5b-1-7-4b[4:13]*-1-3-6b[4:13],
{1},,,{4},{16},,,B6,
B4,B7,B3,{32}E2,E3,E4,E5,E6,E7,E8,E1,{16}E2,
E
