&title=Sabre Dance from Gayaneh
&artist=London Philharmonic Orchestra
&first=0
&des=
&des_5=雾雨Wuyu_
&lv_5=14+
&inote_5=(96){4},{16},,,{64},,,B1,,,,B2,,,,B3,,,,B4,,,,B5,,,,B6,,,,B7,,,,B8,{32},B1/B2,
,B3/B4,,B5/B6,,B7/B8,{64},3x/4x,,,,8x,,,,6x/5x,,,,1x,,,,3x/4x,,,,7x,,,,5x/6x,,,,1x,{32},{16}4x/3x,7x/8x,5x/6x,2x/1x,4x/3x,
6x/7x,2x/1x,4x/5x,4x/2x,{64}8x/6x,{32},{64}3x/1x,,,,5x/7x,,,,2b/3b,,,,1,2xh[64:1],{32},{64}7,6xh[64:1],{32},{64}1,2xh[64:1],{32},{64}7,6xh[64:1],{32},{64}2,3xh[64:1],{32},{64}8,7xh[64:1],{32},{64}2,3xh[64:1],{32},{64}8,7xh[64:1],{32},{64}1,
2xh[64:1],{32},{64}7,6xh[64:1],{32},{64}1,2xh[64:1],{32},{64}7,6xh[64:1],{32},{64}2,3xh[64:1],{32},{64}8,7xh[64:1],{32},{64}2,3xh[64:1],{32},{64}8b,7,6,5,4,3xh[64:1],{32},{64}1,2xh[64:1],{32},{64}7,6xh[64:1],{32},{64}1b,2,3,4,5,6xh[64:1],{32},{64}2,3xh[64:1],{32},{64}8,7xh[64:1],{32},{64}1b,2bx,3bx,4bx,5bx,
6bxh[64:1],{32},{64}8b,7xh[64:1],{32},{64}2b,3xh[64:1],{32},{64}8b,7b,6b,5b,4b,3bh[64:1],{32},{64}2,1xh[64:1],{32},{64}6,{32}5xh[64:1],{64}4,3,2,1,8,7,{16}6h[32:1],3h[32:1],1h[32:1],7h[32:1],5h[32:1],2h[64:13],{8}8h[64:23],
{32},1b,{64}7x,6x,5x,4x,3x,2xh[32:11],{16},{32},{64}7b,6x,5x,4x,{32}3x,{64}1x,8xh[64:27],{8},{32}1b,{64}7x,6x,5x,4x,3x,2xh[64:11],{16},,,{32},7b/6b,,{64}8,7xh[64:1],{32},{64}2,3xh[64:1],
{32},{64}8,7xh[64:1],{32},{64}2,3xh[64:1],{32},{64}7,6xh[64:1],{32},{64}1,2xh[64:1],{32},{64}7,6xh[64:1],{32},{64}1,2xh[64:1],{32},{64}8,7xh[64:1],{32},{64}2,3xh[64:1],{32},{64}8,7xh[64:1],{32},{64}2,3xh[64:1],{32},{64}7,6xh[64:1],{32},{64}1,2xh[64:1],{32},{64}7,6xh[64:1],{32},{64}1b,2,3,4,5,6xh[64:1],{32},{64}8,7xh[64:1],
{32},{64}2,3xh[64:1],{32},{64}8b,7,6,5,4,3xh[64:1],{32},{64}8,7xh[64:1],{32},{64}2,3xh[64:1],{32},{64}8b,7bx,6bx,5bx,4bx,3bxh[64:1],{32},{64}1b,2xh[64:1],{32},{64}7b,6xh[64:1],{32},{64}1b,2b,3b,4b,5b,6bh[64:1],{32},{64}7,8xh[64:1],{32},{64}3,4xh[64:1],,5,6,7,8,1,2,3h[32:1],,,,6h[32:1],
,,,8h[32:1],,,,2h[32:1],,,,4h[32:1],,,,7h[64:13],,,,1h[64:23],{16},,{64},8b,,2x,3x,4x,5x,6x,{16}7xh[32:11],{64},,,2b,3x,4x,5x,6x,,8x,{32}1xh[32:11],{16},{64},,,8b,,2x,3x,4x,
5x,6x,{32}7xh[32:3],{8},{16}4/2>4[16:1],,3/1-4[16:1],,2/8-5[16:1],,1/7<5[16:1],,8/6<3[8:1],,7/3>8[8:1],,6/8>5[8:1],
,A3f,,A8f/B8f,,{64}A5f/E6f/E5f,{32},{64}3,B3h[64:1],{32},{64}8,B8h[64:1],{32},{64}3,4xh[64:1],{32},{64}8,7xh[64:1],{32},{64}2,B2h[64:1],{32},{64}7,B7h[64:1],{32},{64}2,3xh[64:1],{32},{64}7,6xh[64:1],{32},{64}3,B3fh[64:1],{32},{64}8,B8fh[64:1],{32},{64}3,
4xh[64:1],{32},{64}8,7xh[64:1],{32},{64}2,B2fh[64:1],{32},{64}8,B8fh[64:1],{32},{64}2,3xh[64:1],{32},{64}7,D7/E7,A6,D6,A5,D5,A4,,8,1xh[64:1],{32},{64}2,B2fh[64:1],{32},{64}7,D8/E8,A8,D1,A1,D2,{32},{64}2,B2fh[64:1],{32},{64}4,5xh[64:1],{32},{64}7,D7/E7,A6,D6,A5,D5,{32},{64}2,1xh[64:1],{32},{64}7,
6xh[64:1],{32},{64}8,A8/B8,D1,A1,D2,A2,{32},{64}3,B3fh[64:1],{32},{64}8,{16}B8fh[64:1],{64}1x,2x,3x,4x,5x,6x,7x,8b,1xh[64:1],{32},{64}6b,5xh[64:1],{32},{64}8b,1xh[64:1],{32},{64}6b,5xh[64:1],{32},{64}1b,2xh[64:1],{32},{64}7b,6xh[32:5],{32},{64}1b,{16}2xh[64:21],{64},,,7b,8x,1x,,3x,
4x,5x,{32}6xh[64:23],{16},{32},{64}3b,4x,{32}5x,{64}7x,8x,1x,2xh[32:15],{8},{64}7b,8x,{32}1x,{64}3x,4x,5x,6xh[32:7],{4},{16},{64},6,B6h[64:1],{32},{64}1,B1h[64:1],{32},{64}6,
5xh[64:1],{32},{64}1,2xh[64:1],{32},{64}7,B7h[64:1],{32},{64}2,B2h[64:1],{32},{64}7,6xh[64:1],{32},{64}2,3xh[64:1],{32},{64}6,B6fh[64:1],{32},{64}1,B1fh[64:1],{32},{64}6,5xh[64:1],{32},{64}1,2xh[64:1],{32},{64}7,B7fh[64:1],{32},{64}1,B1fh[64:1],{32},{64}7,6xh[64:1],{32},{64}2,D3/E3,A3,D4,A4,D5,A5,,1,8xh[64:1],{32},{64}7,
B7fh[64:1],{32},{64}2,D2/E2,A1,D1,A8,D8,{32},{64}7,B7fh[64:1],{32},{64}5,4xh[64:1],{32},{64}2,D3/E3,A3,D4,A4,D5,{32},{64}7,8xh[64:1],{32},{64}2,3xh[64:1],{32},{64}1,A1/B1,D1,A8,D8,A7,{32},{64}6,B6fh[64:1],{32},{64}1,{16}B1fh[64:1],{64}8x,7x,6x,5x,4x,3x,2x,1b,8xh[64:1],{32},{64}3b,
4xh[64:1],{32},{64}1b,8xh[64:1],{32},{64}3b,4xh[64:1],{32},{64}8b,7xh[64:1],{32},{64}2b,3xh[32:5],{32},{64}8b,{16}7xh[64:21],{64},,,2b,1x,8x,,6x,5x,4x,{32}3xh[16:7],{16},{32},{64}6b,5x,{32}4x,{64}2x,1x-6-3-8-5-2-7-4-1[64:393],8x,7xh[64:13],{1},,,,,,{4},,{16},,{64},7,
,,,6,,,,5pp5[16:15],{16},,,{64},,,4,,,,3,,,,4,,,,5qq5[2:1],
,,,4,{16},,{64},,,5,{32},B5,{16},{64},,,A7,B2,E7,A2,D7,E3,B6,D3,A6,{16}A3,{4},{64},,,2,,,,3,
,,,4qq4[16:15],{16},,,{64},,,5,,,,6,,,,5,,,,4pp4[2:1],,,,5,{16},,{64},,,4,{32},B4,{16},{64},,,A2,B7,E3,A7,D3,
E7,B3,D7,A3,{16}A6,{4},{64},,,3,,,,2,,,,1s5s1[16:15],{16},,,{64},,,5,,,,6,,,,5,,,,4,
,,,5z1b[16:7],{16},{64},,,B4,,,,E5,{16},{64},,,E6,{4},{16},,,{64},6,,,,7,,,,8z4z8[16:15],{16},,,{64},,,4,
,,,3,,,,4,,,,5,,,,4s8b[16:7],{16},{64},,,B5,,,,E5,{16},{64},,,E4,{8},{32}Cfh[32:3]/B6fh[64:5]/B1fh[32:3],{4},{16},{64},6,
,6,,6,{16},{32}4,4,4,,2,2,2,,8,8,8h[32:1],,7bx,6,5,4,3,2,1h[32:1],
,1bx,2,3,4,5,6,7h[32:1],,7bx,6,5,4,3,2,1h[32:1],,1bx,2,3,4,5,6,7h[32:1],,7/8,,7/8,,7/1,,7/1,
,1b,2x,3x,4x,8/2,,8/2,,8b,7x,6x,5x,7/1,,7/1,,7b/1b,2x/6x,5x/3x,4x,2/8,,2/8,,2b/8b,7x/3x,4x/6x,{8}5xh[64:5],
3h[64:5]/5h[64:5],2h[64:5]/5h[64:5],5h[64:5]/1h[64:5],6h[64:5]/1h[64:5],{32}7h[#0.1953125]/1h[#0.234375],,{16},{8}8h[64:5]/1h[64:5],{32}8b/3,7,6,5,4,3xh[16:1],{16},{32}3b/8,
4,5,6,7,8xh[16:1],{16},{32}1b/6x,2,3,4,5,6xh[16:1],{16},{32}6b,5,4,3,2,1xh[16:1],{16},{32}8b,7,6,5,7b,6,5,4,
6b,5,4,3,5b,4,3,2,{16}1,8,2,7,3,6,4,5,B8f,B1f,B7f,B2f,
B6f,B3f,B5f,B4f,{64}Ch[32:1],{16},{64}6,{32}B6h[64:1],{64},1,{32}B1h[64:1],{64},6,{32}B6h[64:1],{64},1,{32}B1h[64:1],{64},7,{32}B7h[64:1],{64},2,{32}B2h[64:1],{64},7,{32}B7h[64:1],{64},2,{32}B2h[64:1],{64},6,{32}B6fh[64:1],{64},1,{32}B1fh[64:1],{64},6,{32}B6fh[64:1],
{64},1,{32}B1fh[64:1],{64},7,{32}B7fh[64:1],{64},1,{32}B1fh[64:1],{64}7,D7/E7,A6,D6,A5,D5,,8,1xh[64:1],{32},{64}3,4xh[64:1],{32},{64}7,D8/E8,A8,D1,A1,D2,{32},{64}2,3xh[64:1],{32},{64}5,6xh[64:1],{32},{64}7,D7/E7,A6,D6,A5,D5,{32},{64}2,1xh[64:1],{32},{64}7,6xh[64:1],{32},{64}8,A8/B8,D1,A1,D2,
A2,{32},{64}3,2xh[64:1],{32},{64}8,{16}7xh[64:1],{64}1x,2x,3x,4x,5x,6x,7x,8b,1xh[64:1],{32},{64}6b,5xh[64:1],{32},{64}8b,1xh[64:1],{32},{64}6b,5xh[64:1],{32},{64}1b,2xh[8:3],{32},{64}7b,{8}6xh[8:1],{64},7b,8x,1x,,3x,4x,5x,6xh[16:5],{16},{64}3b,4x,5x,
,7x,8x,1x,{16}2xh[32:15],,{64},7b,8x,1x,,3x,4x,5x,{16}6xh[32:7],{4},{64}7,6xh[64:1],{32},{64}1,2xh[64:1],{32},{64}7,6xh[64:1],{32},{64}1,2xh[64:1],{32},{64}6,5xh[64:1],{32},{64}2,3xh[64:1],{32},{64}6,
5xh[64:1],{32},{64}2,{128}3b,4x,5x,6,{16},{64},{16}8b,8b,8b,8b,8b,8b,{128}7b,6,5,4,{32},{16}8b,{32}8b,{128}1b,2,3,4,{32},8b,,8b,,{128}7b,6,5,4,{32},8b,
{128}1b,2,3,4,{32},{16}8b,8b,{128}7b,6,5,4,{32},{16}8b,{64}8b,{32},{128}1b,2,3,4,{32},{64}8b,,,,2,D3/E3,A3,D4,A4,{32}D5,{64}1,8xh[64:1],{32},{64}6,5xh[64:1],{32},{64}2,D2/E2,A1,D1,A8,D8,{32},{64}7,6xh[64:1],{32},{64}4,3xh[64:1],{32},{64}2,D3/E3,
A3,D4,A4,D5,{32},{64}7,8xh[64:1],{32},{64}2,3xh[64:1],{32},{64}1,A1/B1,D1,A8,D8,A7,{32},{64}6,7xh[64:1],{32},{64}1,2xh[64:1],,,,8x,7x,6x,5x,4x,3x,2x,1b,8xh[64:1],{32},{64}3b,4xh[64:1],{32},{64}1b,8xh[64:1],{32},{64}3b,4xh[64:1],{32},{64}8b,7xh[64:25],{32},{64}2b,3xh[8:1],{8},{64}2b,
1x,{32}8x,{64}6x,5x,4x,3xh[16:5],{16},{64},6b,5x,4x,,2x,1x,8x,{8}7xh[32:15],{64}2b,1x,{32}8x,{64}6x,5x,4x,3xh[64:15],{4},{16},{64}1h,{128}2x,3x,{32},{64}1h,
{128}8x,7x,{32},{64}1h,{128}2x,3x,{32},{64}1h,{128}8x,7x,{64},8h,{128}1x,2x,{32},{64}8h,{128}7x,6x,{32},{64}8h,{128}1x,2x,{32},{64}8h,{128}7x,6x,{64},1bh,{128}2x,3x,{32},{64}1bh,{128}8x,7x,{32},{64}8bh,{128}1x,2x,{32},{64}8bh,{128}7x,6x,{64},A1h[64:0],{128}E2,B2,{64}B3,,A1h[64:0],{128}E1,B8,{64}B7,,A8h[64:0],{128}E1,B1,{64}B2,{32},{64}8h,7,6,5,{32}4b,{64},{128}1b,2x,{32}3x,
{64},{128}2b,3x,{32}4x,{64}8h,7,6,5,4,3b,,,,{128}1b,2x,{32}3x,{64},{128}2b,3x,{32}4x,{64},1h,2,3,4,5b,{32},{128}8b,7x,{64}6x,{32},{128}7b,6x,{64}5x,,1h,2,3,4,5,{16}6b,{128}8b,7x,{64}6x,{32},{128}7b,6x,{64}5x,,6xh[64:7],5,4,3,2,1,8xh[64:9],,7b,,1,2,3xh[32:5],
,,,1b,{32}2,{64}4,5xh[32:5],{32},4b,{64}6,7,{32}8xh[32:5],,{64}6b,7x,,1,2,3,4,1b/5xh[64:15],2,3,4,6,7,8,1xh[32:19],{8},{64}6b,7,8,,2,3,4,5xh[8:1],{8},{64}6b,7,8,,2,3,4,
5,6,{32}7xh[16:9],{64},,,2b,3,4,5,6,,8,1,2,3,4xh[32:3],{16},{32},{64}5b,6,,8,{16}1xh[16:7],,{64},,,8b,,2,3,4,5,6,7,8xh[64:21],{16},,{64},2b,3,4,5,6,7,1,
2xh[16:1],{16},{32},{64}8b,1x,2x,3x,4x,5x,6x,7x,8x,E8/D8,{32},{64}E7/D7,,,,E6/D6,,,,E5/D5,,,,E4/D4,,,,E3/D3,{32},D2/E2,,D1/E1,{64},E8,{16},{32}E7,,E6,,E5,,E4,
{64},E3,,,,E2,,,,E1,,,,E8,{32},{16}E7,E6,E5,E4,{64}E3,{32},{64}E3,{32},E2,,B8,,B7,,B6,,B5,{64},,,B4,,,,B3,
{32},B2,{64},B1,,,,B8,,,,B7,{32},{16}C/B6,C/B5,C/B4,C/B3,C/B2,C/B1,{64}C/B8,{32},{64}C/B7,,,,C/B6,,,,C/B5,{32},C/B4,,C/B3,,C/B2,
{64},C,,,,5b/B1f,{16},{64},,,4b/B8f,{16},{64},,,3b/B7f,{16},{64},,,2b/B6f,{16},{64},,,1b/B5f,{16},{64},,,8b/B4f,{16},{64},,,7b/B3f,{16},{64},,,6b/B2f,{16},{64},,,5b/B1f,
