&title=エディブルフラワーの独白
&artist=OSTER project feat. 常盤ゆう
&first=0
&des=MMFC
&lv_6=13+
&inote_6=(180)
{1},
{8}5z1[8:5],7bs3[8:4],,,,,,,
{8}2<8[8:1],,6>4[8:1],,1>3[8:1],,5<7[8:1],,
{8}2>4[8:1],,6<8[8:1],,3<5[8:1],,7>1[8:1],,
{8}4>2[8:1],,8<6[8:1],,3p7[8:1],,4<8[4:1],,
{8}8>6[8:3],,4<2[8:3],,8>4[8:2],,,,
{8}8>2[8:1],,6p2[16:3],,1>4[8:1],,7p3[16:3],,
{8}2>5[8:1],,2q6[8:1],6<4[8:2],,,,,
{8}6>4[8:1],,2q6[16:3],,7<4[8:1],,3q7[16:3],,
{8}8<5[8:1],,8s4[16:6],2z6[8:2],,,,,
{8}3>7[4:1],,7<3[16:5],,4>7[16:5],,8<3[16:6],,
{8}5>7[16:6],,1<3[16:7],,6>7[16:7],,2<3[16:8],,
{8}7<7[16:8],,3>3[16:9],,8<1[16:7],,4>5[16:8],,
{8}1<5[16:4],,5w1[8:2],,,,,,
{8}3-8[16:4]*pp7[16:8],,,,,,5-1[16:4],5qq8[16:8],
{8},,,,,,2<7[16:3],,
{8}4>5[16:8],,,,,,3-1[8:1]*v8[8:1],,
{8},,7-5[8:1]*v4[8:1],,,,5v2[16:3],,
{8}1v6[16:3],1qq5[16:7],,,,,4-8[16:4]*pp7[16:8],,
{8},,,,8<6[16:2],8pp1[16:4],,,
{8}7<1[16:6],,,,,,,8z4[8:2]/2s6[8:2],
{8},,,,7<2[16:6],,,,
{8}8pp1[16:4],,4pp4[16:5],,,,1<4[16:5],,
{8},,8pp8[16:5],,,,5>8[16:5],,
{8},,6qq6[16:5],,,,1>6[16:5],,
{8},,7pp8[16:4]*qq6[16:4],,,,,,
{8}2>4[8:1],5v8[16:3],,5qq3[16:3],,5pp6[16:3],,2>4[8:1],
{8},2q6[8:1],6<4[4:1],,,,,,
{8}8<6[8:1],5v2[16:3],,5pp7[16:3],,5qq4[16:3],,8<6[8:1],
{8},8p4[8:1],4>6[4:1],,,,,,
{8}2z6[8:12],,,,,,,,
{8}1-7[8:1],,,,8-2[8:1],,,,
{8}6z2[8:12],,,,,,,,
{8}5-3[8:1],,,,4-6[8:1],,,,
{8}3z7[8:12],,,,,,,,
{8}3<5[8:1],,,,6<8[8:1],,,,
{8}7z3[8:12],,,,,,,,
{8}7>1[8:1],,,,2>4[8:1],,,,
{8}3V57[4:2],,,,8p3[4:1],,,,
{8}1V35[4:2],,,,6p1[4:1],,,,
{8}6V82[4:2],,,,3p6[16:3],,,,
{8}4V28[4:2],,,,7v4[8:1],,7<5[8:1],,
{8}2>4[8:1],,1q5[8:1],5v3[16:3],,8<6[8:1],,8p4[8:1],
{8}4>5[16:6],,,,2-7[8:1],,4pp5[16:3]*qq3[16:3],,
{8}4-8[8:1],,,,1v2[8:1],,7v5[8:1],,
{8}8pp2[16:3],,6qq5[16:3],,7pp7[16:3],,6b>7[8:8]*<5[8:8],,
{8},,,,,,,,
{8},,,,6-1[8:1]/1>4[8:1],,,,
{8}3-1[8:1]/8-6[16:2],,3-5[8:1],,3-1[8:1],6v8[16:3],3-5[8:1],,
{8}3-1[8:1],,3-5[8:1],8v6[16:3],3-1[8:1],,3<5[8:1],,
{8}2-8[8:1],7-5[12:1],2>4[8:1],,1-7[8:1],6-4[12:1],1V37[8:2],,
{8}8V62[8:2],,,,,,6-8[8:1],,
{8}6-4[8:1],,2-4[8:1],,2-8[8:1],,6-8[8:1],,
{8}6-4[8:1],,1>4[8:1],,2-8[8:1],,5<8[8:1],,
{8}6-4[8:1],,,1>4[8:1],,1<5[16:3],7<5[16:1],8b>4[16:3],2>4[16:1],
{8}1b<5[16:3],7<5[16:1],8b>4[16:3],2>4[16:1],1bq5[8:1],,,
{8}8<6[8:1],,8>2[8:1],3v5[16:3],8<6[8:1],,8-2[8:1],,
{8}8-6[8:1],,8-2[8:1],5v3[16:3],8-6[8:1],,8>2[8:1],,
{8}7-5[8:1],4-2[12:1],7>1[8:1],,6-4[8:1],3-1[12:1],6V84[8:2],,
{8}5V31[8:2],,,,,,1>4[8:1],,
{8}2-8[8:1],7-5[12:1],2-4[8:1],,2-8[8:1],5-7[12:1],2>5[8:1],,
{8}3-1[8:1],7-5[12:1],3V58[8:2]*V52[8:2],,,,,,
{8}2>5[12:1],8<5[12:1],3-1[12:1],7-1[12:1],4p5[16:6],6q5[8:2],,,
{8},,,4-8[8:1],,4qq1[16:6]*pp7[16:6],,,
{8},,,,6>4[8:1],,8qq6[8:1],,
{8}7<4[8:1],,1q5[8:1],,8<5[8:1],,2-6[8:1],,
{8}1<6[8:1],,3q8[16:3],,8pp2[16:3],,4pp6[16:3],,
{8},,1qq7[16:3],,7pp1[16:3],,4-8[16:2],,
{8}4qq2[16:3],,1pp6[16:6],,,,,,
{8}7-5[8:1],7q1[16:4],,,4-2[8:1]*-6[8:1],,,,
{8}1-3[16:2],1p7[8:2],,,,4z8[16:8],5s1[16:6],,
{8},,,,,,8<5[8:1],,
{8}7-1[8:1],2v4[8:1],7-5[8:1],,7-1[12:1],,7<4[8:1],,
{8}6-8[8:1],3v1[8:1],6-4[8:1],,6-8[8:1],,6>4[8:1],,
{8}7-1[8:1],2-4[12:1],7<5[8:1],,8-2[8:1],3-5[12:1],8-4[8:1],,
{8}8q7[16:4]*p1[16:4],,,,,,2>4[8:1],,
{8}1<7[8:1],6-4[12:1],1>3[8:1],,1<7[8:1],4v6[16:2],1>3[8:1],,
{8}1<7[8:1],,1pp3[8:1]/6>4[8:1],,6<8[8:1],,6>4[8:1],,
{8}7>1[8:1],2-4[12:1],7<5[8:1],,8>2[8:1],4v2[16:2],8<6[8:1],,
{8}8>2[8:1],,8qq6[8:1]/3<5[8:1],,3>1[8:1],,3<5[8:1],,
{8}2<8[8:1],7-5[12:1],2>4[8:1],,1<7[8:1],5-7[12:1],1>3[8:1],,
{8}8V64[4:1],6V42[4:1],4V26[16:4]*V28[16:4],,,,,,
{8}7-3[8:1],,5v2[8:1],5v8[8:1],,,,,
{8}4v7[8:1]*v1[8:1],,4pp5[16:4]*qq3[16:4],,,,,,
{8}8b>3[6:1],2b>5[6:1],4b<7[6:1],,,2b>7[16:5],4b<1[16:5],6b<3[16:5],
{8},8b-4[8:1],,8bV27[4:1]*V61[4:1],,,,,
{8}2q3[16:62]/6>7[4:15],,,,,,,,
{1},,,,E
