&title=AlterGate
&artist=MisoilePunch♪/タケノコ少年
&first=0.079
&des=Ayuri
&lv_5=14+
&des_5=Ayuri
&inote_5=
(199){4},,,,{1}3h[1:1]/4<3[4:3],
{2},B5/E5/B4,
{1}6h[1:1]/5>6[4:3],
{2},B8/E1/B1,
{1}1qq4[2:3]/8pp5[2:3],
,{24}3/6,
4q3[24:17]/5p6[24:17],{1},{4},{16},,{24},{16}1,
8,1,8,{24}2,3,4,7,6,5,
{4}1-6[8:1],{8}1/6,5-1[8:1],,5/1,{4}2-5[8:1],
{8}2,{16}8,7,6/4,3,{8}2,{4}1V38[4:1],1/5-1[8:1],
5,{8}3h[8:3],2-6[8:1],,,4>1[8:1],5<8[8:1],
4,5,3,3,{16}1,8,7,6,5/1,2,3,4,
{32}7,6,{16}5,{32},,7,6,{8}5,{32}7,6,{16}5,{32},,2,3,{8}4,{32}2,3,{16}4,{32},,2,3,
{8}4,5/6,{16},3/4,,,{8}4/5,{16}5,4,{8}5,3/6,
{16}2,8,4,6,1,7,3,5,8,1,2,3,8,7,6,5,
4,4,4,4,4,4,4,4,4,4,4,4,4,4,4,4,
{4}3b/5b,{8}2V48[4:1],4,{4}2,7-5[8:1],
{8}7,1-5[8:1],,1,{4}8-4[8:1],8/2>8[2:1],
,,{2}5h[2:1],
{4}1,2/6,{8}3/5,4,6/4,5,
{4}3/7,{8}7V51[4:1],5,{4}7,2-4[8:1],
{8}2,8-4[8:1],,8,{4}1-5[8:1],1/7<1[2:1],
,,{2}4h[2:1],
{8}7,3,6,2,5/3,{16}6,4,{8}6,{16}3,5,
{4}3,{8}6h[4:1],5,3h[4:1],4,5h[4:1],2,
{4}1V73[4:1],{8}5-8[8:1],6,{4}5,1-6[8:1]*-4[8:1],
1,{8}5,5,3,3,6,6,
4,{16}4,5,{8}3,{16}6,5,{4}7V16[4:1],{8}4-7[8:1],3,
{4}4,{8}5,1,{16}7,8,{8}7,{16}2,1,{8}2,
5/3,4/6,{16}3,5,{8}4,{16}7,5,6,4,5,3,{8}4,
2/8h[4:1],{24}2,3,4,{8}5,7/1h[4:1],{24}7,6,5,4,{48},,,,{16}3,2,3,2,
{8}4h[4:1],{24}8,1,2,{8}3,{24}5,6,7,{16}8,2,8,2,7,1,7,1,
{4}6V48<7-5[2:1],{8}6/3,2,{4}1-5[8:1],1,
{8}4,{16}6,5,{8}6,3,{16}5,4,{8}5,{16}1,2,3,4,
6,5,6,5,7,4,7,4,8,3,8,3,1,2,1,2,
A8,A7,A6,A5,A1,A2,A3,A4,6,5,4,3,2,1,8,7,
{4}6/3V51>2-4[2:1],{8}3/6,7,{4}8-4[8:1],8,
{8}5,{16}3,4,{8}3,6,{16}4,5,{8}4,{16}8,7,6,5,
{8}3/4,{16}2,1,{8}2,6/5,{16}7,8,{8}7,{16}1,8,2,7,
3,6,4,5,{8}2/7,{16}E3,E4,{8}E5,7/2,{16}E7,E6,{8}E5,
2>5[8:1],1,2,8bh[2:1],{16},,7,6,5,4,3,2,
{8}1/7<4[8:1],8,7,1bh[2:1],{16},,2,3,4,5,6,7,
{8}8/2,{16}3,4,{8}3,1/7,{16}6,5,{8}6,{16}3,4,2,5,
1,6,8,7,1,2,3,4,{8}5-1[8:1],6,{4}5,
{16}7h[4:1]/A1,A2,A3,A4,{8}A5,{16}2h[4:1]/A8,A7,A6,A5,{8}A4,{16}3,1,4,2,
5,3,6,4,7,5,8,6,{32}1,2,3,4,5,6,7,8,1,2,3,4,5,6,7,8,
{4}1b-5[8:1],8-3[8:1]/1-3[8:1],1/8<5[8:1],8,
{16}4,3,4,3,5,2,5,2,4,3,4,3,5,2,5,2,
{1}C,
B6/B3,
{4}E6/E4,{24},,,,,,,,,,,,4,5,4,5,4,5,
{8}4b-7[8:1],6,4,8-3[8:1],1,8,{4}4h[4:1],
{8}5,{16}1,8,{8}1,4/5,{16}8,1,7,2,6,3,5,4,
B5,B6,{8}E7,1,{16}B4,B3,{8}E3,{16}8,7,1/6,2,{8}3,
4/5,{16}8,1,{8}8,5/4,{16}1,8,2,7,3,6,4,5,
B4,B3,{8}E3,8,{16}B5,B6,{8}E7,{16}1,2,3/8,7,{8}6,
{16}1/8bh[4:1],2,3,4,{8}5,{16}7/8bh[4:1],6,5,4,{8}3,{16}8/1bh[4:1],7,6,5,
{8}4,{16}2/1bh[4:1],3,4,5,{8}6,{16}8,7,8,7,{8}8,{16}1,2,
1,2,{8}1,{16}4/5,3/6,2/7,1/8,{32},,,,2b/1bqq4[2:5],3x,4x,5x,,,7b/8bpp5b[16:37],6x,5x,4x,{1},,{4},,{16},{2}Ch[1:1],
{8},,,,5h[4:3],,,1h[8:3],
{16},,,,,2/6,3/7,4/8,{4}5/1,{8}1-5[8:1],5V74[4:1],
{4}1,{16}4,3,2,1,{8}8>3[8:1],5<8[8:1],8,5,
4h[4:1],{16}1,8,7,6,5,4,{4}3/1-5[8:1],{8}7-3[8:1],8,
{16}4,3,2,1,5,6,7,8,{8}1/2,{16}3,4,{8}3,5/6,
{16}7,8,{8}7,{16}1,8,2,7,3,6,{8}4>1[8:1],5,4,
7<4[8:1],8,7/2-5[8:1],2,8-4b[8:1],8,1V72V48[2:1],1,
5,5,6,6,{4}7V16-4[4:1],{8}3,3,
{4}1xV38[4:1],1,{16}5,4,3,2,1,8,7,6,
{4}4>1[8:1]/5<8[8:1],4/5,{16}2-5-3[4:1],,,1,{8}2,{16}8,7,
6V48[4:1],,,2,{8}6,3,{4}1<6[8:1],1>4[8:1],
1/5-2[8:1]*-8[8:1],5,{16}1x,7,2,8,{8}3h[8:1],{16}8x,2,
7,1,{8}6h[8:1],{4}1>4[8:1],5<8[8:1],{16}E1,E2,E3,E4,
E5,E6,{8}E7f,{4}8bxh[4:1],2-5[8:1],{8}2/1,7-4[8:1],
,7/8,{4}1w5[8:1],{16},,,,8,7,6/2,3,
4/8,7,6/2,3,4,5,6,7,8,5,8,5,1,6,1,6,
2,7,2,7,3,8,3,8,4,2,4,2,4-8[8:1],1,4,1,
{32}D8,D7,D6,D5,,,,,A1f,B1,C,B5,{8}A5,3/8-4[8:1],7,{16}3V15[4:1],2,{8}1,
{16}5V38[4:1],6,{8}7-4[8:1],8,7,{4}C,{8}6/1-5[8:1],2,
{16}6V84[4:1],7,{8}8,{16}4V61[4:1],3,{8}2,2-5[8:1],1,{4}2,
{8}7-4[8:1],3-7[8:1],7,3,8<5[8:1],5-1[8:1],8,{16}4,3,
{4}2h[4:1],{16}8,1,8,1,7-4[8:1],1,7,1,{4}7,
B2f/B1/A2,{16}3-8[8:1],5,3,5,{4}3,B6f/B5/A6,
{16}5,4,6,3,7,2,8,1,{4}7<4[8:3],{16}8,8,8,8,
{4}8,2-6[8:3],{16}1,1,1,1,{4}1,
{16}8/E4,,,7/E3,,,{8}6/E2,{2}E1f/5bpp4V25[4:9],
{1},,{4},{24}8w4[8:1],
8,8,8,8,8,{4}8,{12}1,8,2,
8,1,7,1/8,8/1,1/8,,,{6}4/3,5/6,
3/2,6/7,1/2,7/8,{12}1,8,{6}1,
{24}8/4,7,6,5,4/8,3,2,1,8/4,7,6,5,{2}4b/8bw4[2:3],
{8},,,,,,,,,,,,5-2[8:1],
4,{16}8-4-1[4:1],7,{8}6,
{2}1V73b[4:1],{8}2-5[8:1],4-8[8:1],{16},,,,1,
2,3,4,1,8,7,6,{8}2-6[8:1],6V41[4:1],{16},,,,8>3b[8:1],
7,6,5,{4}4V61[4:1],{2}1V37[4:1],
{16}4,3,2,1,4,5,6,7,{4}1pp5[4:1],{8}8,7,
{4}6h[4:1],8qq4[4:1],{8}1,2,{4}3h[4:1],
6-3-7[4:1],{16}6/3,2,{8}1,{4}8>5[4:1],{8}6,7,
{4}8<3[4:1],2h[4:1],{8},1h[4:1],{4}4h[4:3],
{16}B3/E4/A3,,,B5/E6/A5,,,{8}B7/E8/A7,{4}B1f/E2/A1,{8}3,2b/4b,
,6,{4}7b/5b,{8}3/4,2b/5b,,6/5,
{16}7b/4b,8,1,2,3,4,5,6,{8}7h[4:1]/1h[4:1],,,6b/8b,
,2,{4}3b/1b,{8}7/8,6b/1b,,2/1,
{16}3b/8b,4,5,6,7,8,1,2,{6}3/B7f,6/B2f,4/B8f,
5/B1f,3/6,1b/8b,{12}2,2,2,4,4,4,
{24}1,3,1,3,1,3,{16}4/8<8>8b[1:1],1/5,2/6,3/7,{2}4/8,
{16},,,,,,,,,,,,1,1,1,1,
1,1,1,1,1,1,1,1,1,1,1,1,1,1,1,1,
1,1,1,1,1,1,1,1,1,2,3,4,1,8,7,6,
1,2,3,4,1,8,7,6,{32}E8/E1/E2,B7/B8/B1/B2,E7/Cf/E3,B6/B5/B4/B3,{8}E6/E5/E4,
E
