&title=sanzione
&artist=ざんぎ(feat. 初音ミク)
&first=0
&des=WuWai
&lv_5=13
&inote_5=(118){1},
{16}4<6[8:1],,,,,,,,{24},,,4<6[8:1],,,{32},,5,,,,,,
{16}7-4[8:1],,,,,,,,{24}3,,,,,6,5,,5,4,,4,
{16}3h[4:1],,,,1h[4:1],,,,8h[4:1],,,,{24}6,,3,5,,4,
{24}6,,3,5,,4,6,,3,5,,4,{24}5,4,6,5,6,4h[6:1],5-1[12:1],,,,,,
{16}5b,,2,,{24}7h[12:1],,5,,,6,5,,,5,,7,,,3,4,,2,
{16}1,,{24}4h[8:1]/5h[8:1],,,,,6,4,,5,3,,2,4,,5,3-8[8:1],,2,4,,5,
{24}3,,,4h[8:1],,,,,3,4,,2,1,,,8,,27,,,5,4,,5,
{24}3h[24:3],,,5h[8:1],,,,,4,6,,3,
8,,1,7,,2,8h[24:3],,,4,,,
{24}34,,,3>1[12:1]/2h[8:1],,,,,4,3,,,5,,5,,,3,4h[24:3],,,3,,,
{24}56,,,6<8[12:1]/7h[8:1],,,,,5,6,,,4,,4,,,6,5,,5,4,,,
{24}3,,,3h[8:1]/4>2[12:1],,,,,5,4,,,6,,6,,,1,8h[24:3],,,1,,,
{24}6,,,6h[8:1]/5<7[12:1],,,,,4,5,,,3,,,3h[24:3],,,1-5[12:1],8,7,6/4,3,2,
{24}1,,,8h[8:1],,,,,4v5[6:1],5,,,5-2[8:1],,4,,,6,6,,,7,,,
{24}1,,,8h[8:1],,,,,4v5[6:1],5,,,5V31[6:1],,4,,,6,6,,7,,,,
{24}1,,,8h[8:1],,,,,4v5[6:1],5,,,5V38[16:3],,4,,,6,6,,,7,,,
{24}6,,,5,,,4,,3,4,,,2,,6,5,,5,4,,4,5,6,7,
{24}8/3,,,3h[8:1],,,,,3,6,,,3/5,,3,,,3,4,,,2b,,,
{24}6b,,,6h[8:1],,,,,6,3,,,6/4,,6,,,6,5,,,7b,,,
{24}2b,,,2h[8:1],,,,,2,5b,,,3b,,,,,6,5,,,8b,,,
{24}4b<3[4:1],,,,,,,,,,,,5,,5,4h[24:9],,,3,2,1,8,7,6,
{16}5-2[8:1],,,,6h[4:1],,,,{24}1-6[8:1],,,,,3,,,,4-1[8:1],,,
{16},,,,4-7[8:1],,,,8-3[8:1],,,,6-1[8:1],,,,
{24}2-5[8:1],,,,,,8-5[8:1],,,,,,4,,,,,3-8[8:1],,,,7V51[4:1],,,
{16},,,,2,,,,3-1[12:1]*-5[12:1],,,,3,,,,
{16}4h[8:1]/6h[8:1],,,,5h[8:1]/3h[8:1],,,,4h[8:1]/6h[8:1],,,,5h[8:1]/3h[8:1],,,,
{16}4h[8:1]/7h[8:1],,,,5h[8:1]/2h[8:1],,,,3h[8:1]/7h[8:1],,,,5h[8:1]/1h[8:1],,,,
{16}2,,3,,4,,5h[24:18]/6,,6,,6,,4,,4,,
{24}4,3,2,1,48,37,26,,,35,,,{12}2,4,3,7,5,6,
{24}45,,,67,,,5b/4b,,,3h[8:1],,,4-8[8:1],,2,1-5[8:1],,3,4>1[8:1],,,1<6[8:1],,,
{24}4,,,,,,4,,,5,,,3>8[8:1],,7,8>3[8:1],,4,3<6[8:1],,,7,,,
{24}7,,,,,,4,,,5,,,3>8[8:1],,7,8>3[8:1],,4,3<6[8:1],,,7,,,
{24}7,,,,,,8,,3,4,,,1,,6,5,,,8,1,2,3,4,5,
{24}62,,,6/2h[8:1],,,6b>3[8:1],,,3>8[8:1]/7,,2,6,,,,,,3<6[8:1],,8,1,,,
{24}3,,,7h[8:1],,,8-4[8:1],,,65,,1,8,,,,,3,4,,4,5qq2[2:1],,5,
{24}6h[8:1],,,5,,,7,,,7,,,6,,6,,,6,5,,5,4<8[4:1],,4,
{24}3h[8:1],,,4,,,2,,,3,,,4>2[12:1]/8<6[12:1],,,15,,,4v6[8:1]/8,,,,,,
{16}4,,5,,{24}4b/6b,,5-8[8:1],,,4,6,,,2,,2,,,1,8,,3,
{16}4h[8:1],,{24}5h[8:1],,,,,6,5,,5,4,,4,5,,5,6,,6,5,,5,
{24}4h[8:1],,,2h[8:1],,,,,5,3,,6,4,,,7,,4,6,,3,5,,,
{16}14,,85,,4-2[16:1]/1,,5-7[16:1]/8,,4/1-5[12:1],,5/8-4[12:1],,1,,8,,
{16}3,,4,,{24}3b/5b,,4-1[8:1],,,5,3,,,7,,7,,,8,1,,6,
{16}5h[8:1],,{24}4h[8:1],,,,,3,4,,4,5,,5,4,,4,3,,3,4,,4,
{24}5,,,7h[8:1],,,,,4,6,,3,5,,,4,,5,,,2,7,,1,
{24}8,,,4h[8:1],,,,,5,4,,6,1,,8,2,,7,1h[8:1],,,5,,,
{24}4h[2:1],,,,,,,,,,,,5h[24:5],,,,,6h[6:1],,,,8h[24:15],,,
{24},,,,,,,,,,,,1h[4:1],,,,,,3h[4:1],,,,,,
{24}4h[2:1],,,,,,,,,,,,5h[24:5],,,,,3h[6:1],,,,6h[24:9],,,
{24},,,,,,4,,,,,,{24}3,,4,,5,,6,,,27,,,
{16}4h[4:3]/3,,,,3,,,,3,,,,{24}3h[12:1],,4h[24:1],5h[24:21],,,
{16}6,,,,6,,,,6-4[12:1],,,,6,,,,
{16}34,,35,,36,,37,,65,,64,,63,,62,,
{24}5,4,5,3,4,3,5h[8:1],,,,,,{16}3h[8:1],,,,8z4[4:3],,4h[8:1],,
{4},8h[999:1],8h[999:1],8h[999:1],
{24}2-7[12:1]/6-3[12:1],,,37,,,2b/6b,,,,,,4/5v3[12:1],,3-1[12:1],6,,,8V64[8:1]/5,,,7,,,
{24}8,,,,,,3,,,6,,4,5-7[12:1],,4,3-1[12:1],,4,5v3[8:1],,,3V57[8:1],,,
{24}5,,,,,,3,,,3,,5,4-2[12:1],,5,6-8[12:1],,5,4v6[8:1],,,6V42[8:1],,,
{24}4,,,,,,6,,3,4,,,1h[12:1],,7h[12:1],,5h[24:5],,2-6[8:1],1,8,7,4,3,
{24}2-4[12:1]/7-5[12:1],,,8,,,2b/7b,,,,,,36,,4,5,,,{16}1,8,2/7-4[8:1],,
{24}8,,,4-1[8:1],,,3,,5,4,,,6,,,2,,6qq1[24:10],4,,5,3,,6,
{24}4,,,3h[8:1],,,,,,2,,,2,,7,,,3qq8[24:10],5,,4,6,,3,
{24}5,,,6h[8:1],,,,,,7h[8:1],,,6h[4:1],,,,,,2b,15,48,37,26,51,
{24}8-3[12:1]/4-7[12:1],,,15,,,8b/4b,,,,,,8-3[8:1],,1,7,,,8/7V51[24:4]*V52[24:4],,,8,,,
{24}7,,,,,,8,,3,4,,2,1<6[8:1],,3,4v1[8:1],,2,1>4[8:1],,,4,,,
{24}5v8[8:1],,,6,,,5,,,1,,7,8>3[8:1],,6,5v8[8:1],,7,8<5[8:1],,,5,,,
{24}4h[4:1],,,,,,5h[12:1],,4,5,,,2,,7,,1,,6-3[12:1],5,4/2,1,8,7,
{24}6/5h[8:1],,,,,,4b/5b,,,2>4[12:1]/7,,,1,,8,2,,,{16}5,4,36,,
{24}5h[8:1],,,4,,,7<5[12:1]/2,,8,1,,,7,,,2,,5,4p1[24:9],,6,5,,5,
{24}4,,,5,,,6,,,7,,,1,,8,,,4,5q7[24:9],,3,4,,4,
{24}5,,,2,,,1-3[12:1],,,8-4[8:1],,,1-5[8:1],,,8,,,1>4[12:1]*<6[12:1],,,,,,
{16}1b,,,,{24}5,,5h[8:1]/4,,,3,5,,,2,,8,,,1,7,,2,
{16}8h[8:1],,{24}5h[8:1],,,,,6,5,,5,4,,4,3,,3,4,,4,5,,5,
{24}6,,,1h[8:1],,,,,6,5,,5,4h[8:1],,,2h[24:2],,7,,,1,8,,,
{16}12,,87,,1-3[16:1]/2,,8-6[16:1]/7,,1/2>7[8:1],,8/7<2[8:1],,2,,8,,
{16}7>1[12:1],,2,,{24}7b/2,,3,,,5,4,,,7,,1,,,8,2,,7,
{16}1h[8:1],,{24}4h[8:1],,,,,3,4,,4,5,,5,6,,6,5,,5,4,,4,
{24}3,,,8h[8:1],,,,,3,4,,4,5h[8:1],,,7h[12:1],,2,,,8,1,,1,
{24}8,,,3h[8:1],,,7,,2,8,,1,7-3[8:1],,2,8-4[8:1],,1,7,,,8,,,,
