&title=明け星
&artist=レモネードファクトリー
&first=0.56
&des=GAHOU
&lv_5=13
&inote_5=(185)
{4}C,C,C,C,
{4}3b,4,5,6,
{1}1b,
{8}5/2h[8:7],,5,,6,6h[8:1],,5h[4:1],
{8},,5,,7h[8:1],,7,,
{8}8/4h[8:7],,8,,7,7h[8:1],,8h[4:1],
{16},,,,8,,A5,A4,6h[8:1]/A3,A2,A1,A8,6/A7,,,,
{8}5/7,,7/5,,6/5,6,5,7h[4:1],
{8}5-3[8:1],,6,,4h[8:1]/2h[8:1],,4x/2x,,
{8}8/3,,8/3,,2/4,2,4,2h[4:1],
{8}4-6[8:1],,3,,5/7,{16}6,5,4/8,,,,
{8}7-4[8:1]/8,,1,,2/1,2-5[8:1]/1,3,8-4-6[4:1],
{8},3,2,,2/5,6/3,4/7,8/5,
{4}1v4[8:1],3>8[8:1],5-7<5[4:1],{8}5>2>5[8:3]*q2p5[8:3],4,
{8},,,,8q4<5[8:1]*>1p5[8:1]/1,,,,
{8}4xh[4:3]/E8,,B7,,B6,,E6,,
{8}3h[4:3]/E8,,B7,,B6,,E6,,
{8}5h[4:3]/E2,,B2,,B3,,E4,,
{8}6h[4:1]/E2,,B2,,B3/7xh[8:1],,E4,,
{8}1h[4:3]/E7,,B6,,B5,,E5,,
{8}3h[8:1]/E7,,B6,,B5/2h[4:1],,E5,,
{8}8h[4:3]/E3,,B3,,B4,,E5,,
{8}6h[8:1]/E3,,B3,,4-1b[8:1]/7,,E5,,
{8}6/8-3[2:1],,6,,6,,6,7,
{8}8-3[8:3]/4,,4,,4,,4,3,
{8}4-7[2:1]/2,,2,,2,,2,3,
{8}8pp6[8:3]/4,8,3,,4w8[8:1],,4,,
{8}4q8[8:2]/2,,2,,2,,8/3,4,
{8}5p1[8:2]/7,,7,,7,,7/1,,
{8}6/8,5,4,3-5[8:1]/1,,7-3[8:1],,2bq7b[16:5]*>7b[16:5],
{8},,,,,8/1,7/2-5[8:1],,
{8}E6/B6/A6,,,8,1h[4:1]/7,,5,4-1[8:1],
{8},5-8[8:1],,3h[4:1],,7,6v8[8:1]/2v4[8:1],,
{8}6/2<5[8:3],,,3,3,,1,4h[8:3]/8,
{8},5,5V38[4:1],,6h[4:1],,,,
{8}B4/B3/E4/A4/D4/A3/1-5[8:1],,,6,6q2[8:1],,3,3<5[8:1],
{8},7p3[8:1],,2q6q2[8:3],,7,8,1x-4-7[4:1],
{8},,,2,2V48[4:1],,5,5-7[8:1],
{8},1,1-5[8:1],,8,8,7/4,,
{8}5/2v4[8:1],,6<2[4:1],,2,3,4,5qq3[8:1],
{8},7,8,8qq6[8:1],,3,2,1,
{8}6h[4:1]/8p3[8:1],,,,8,7,2,1>4[8:1]/6,
{8},8<5[8:1],7,3,,2,8qq7[8:1]/1pp2[8:1],,
{8}8b/1b,,1,8/3V52[4:1],,7/3,7-3[8:1],,
{8}7b/1b>4[8:1],,1/5,6V47[4:1],,6/2,1-5[8:1],,
{8}8-6[8:1]*-3[8:1]/1,,8,,7/5,6/4,5/3,4/2h[4:1],
{8},4,5,5/7h[4:1],,5-8[8:1],4,5/3,
{8}E2,,C,B3,,E8,,2/C,
{8},6/C,,B3/E3,B6/B5,,E1/C,,
{8}2/4,5,4/7,8,5/6,3/4,1/8,6h[4:3]/3h[4:3],
{8},,,,,,8/1>6[4:1],,
{8}1b/Cf,,7,8-5[8:1]/5-2[8:1],,8>6[4:1]/5,,8/6,
{8},7,8-5[8:1]/5-2[8:1],,8/5V71-3[8:3],,1V35[4:1],,
{8}5,,1,2-6[8:1]/7-1[8:1],,2/7V53-1[8:3],,3V17-5[8:3],
{8},7,,,,4/3,2,1,
{8}7b-5[8:1]/8,,4/7b,4b-8[8:1],,2-5-7[4:1]*V48[4:1]/4b,,2b,
{8},,1/2-4[8:1],,5-1[8:1]/2,7<4[8:1],5,7,
{8}2,1<6[8:1],3,1b,,3p7[8:1],5,3b,
{8},8<2[4:1],5,8b,,8,7>5[4:1]/1,,
{8}7b/Cf,,2,1-5[8:1]/4-7[8:1],,1<3[4:1]/4,,1/3,
{8},2,1-5[8:1]/4-7[8:1],,1/4V28-6[8:3],,8V64[4:1],,
{8}4,,8,7-3[8:1]/2-8[8:1],,7V58[4:1]/2-5-1[4:1],,,
{8},,2b-7[8:1]/7b,,5b-2b[8:1]/2b-5b[8:1],,5bV38b[4:1]/2bV48b[4:1],,
{8}5bx/2bx,,A8/B8/D1/E1f/B1/A1,,7/5,2/4,8/3,1/6,
{16},,7/2,,3,5,4,6,3,5,4,6,2b>4[12:1]/7b<5[12:1],,,,
{8}7/2,,8/1,,3,4,5,6>3[8:1],
{8},2q6[8:1],,8,8w4[8:1],,8,,
{8}B7/B6/C/B2/B3,,7,6,3,2,,6/7,
{16},,3/2,,6,,4,4,5-1[8:1],,2,,5,,,,
{8}4b/3b,5b/1b,3,5b/6b,8b/4b,6,8b/1b,6bz2[8:6]/3b,
{1},
{16},,D3,A3,D4,A4,D5,A5,D6,A6,C,,,,,,
{16},,,,E7,B6,B5,,,,,,B2,,,,
{16},,,,B7,,,,,,,,,,,,
{12}E4,B4,B5,E6,,,,,,,,,
