&title=Altale
&artist=削除
&first=0
&des=Cassandraaa
&lv_6=14+
&inote_6=(60)
{12},,,,
{36},,,1,,8,28,,,,,,8,,1,71,,,,,,7,,6,
56,,,5,,,4,,3,34,,,,,,2,,,
18,,,,,,2,,,3h[12:6],,,7,,,6,,,5h[12:6],,,,,,,,,,,,2,,,1,,1,
2,,,,,,26,,6,35,,,,,,34,,3,2h[4:1]/4,,,5,,,6,,6,7h[12:5],,,3,,,4,,4,
5h[36:8],,,,,,,,,6,,,35,,,24,,,
{48}1b/5,2,3,4,15,6,7,8,15,2,3,4,15,6,7,8,15,2,3,4,15,6,7,8,
1/5b,4,3,2,15,8,7,6,15,4,3,2,15,8,7,6,15,4,3,2,15,8,7,6,
5/8b,1,2,3,14,2,3,4,25,3,4,5,1b/6,8,7,6,58,7,6,5,47,6,5,4,
3b,2,1,8,47,3,2,1,38,2,1,8,6b,7,8,1,52,6,7,8,61,7,8,1,
2,,,,7,,,,1,,,,1b,2,3,4,5,6,7,8,1,2,3,4,
5,,,,6,,,,7,,,,8b,7,6,5,4,3,2,1,8,7,6,5,
4,,,,3,,5,,4,,6,,4b,3,2,1,8,7,6,5,4,3,2,1,
8,,,,7,,,,6,,,,5b,6,7,8,1,2,3,4,5,6,7,8,
1,,,,28,,,,37,,,,26,,,,15,,,,84,,,,
57,,,,68,,,,71,,,,82,,,,13,,24,,35,,46,,
5/7h[12:3],,,,5,,4,,3,,2,,1h[12:3],,,,7,,6,,5,,4,,
3b,4,5,6,78,1,2,3,45,6,7,8,1/5b,4,3,2,18,7,6,5,34,2,1,8,
7h[12:3],,,,6,,5,,4,,,,5h[12:3],,,,8,,1,,2,,,,
3h[12:3],,,,2,,1,,8,,7,,6h[12:1],,1,,4h[12:1],,8,,5h[12:1],,2,,
3h[12:3],,,,4,,5,,6,,,,7h[12:3],,,,6,,5,,4,,,,
3h[12:3],,,,4,,5,,6,,7,,8h[12:1],,5,,1h[12:1],,4,,7h[12:1],,6,,
5b,,,,46,,3,,24,,,,13,,,,71,,6,,58,,,,
78,,7,,67,,6,,56,,5,,45,,4,,34,,3,,23,,2,,
12,,,,38,,7,,46,,,,56,,,,47,,3,,28,,1,,
12,,2,,23,,3,,34,,4,,45,,5,,56,,6,,67,,7,,
8b,8,8,8,8,8,8,8,8,8,8,8,7,7,7,7,7,7,7,7,8,8,8,8,
7,7,6,6,5,5,4,4,3,3,2,2,1,1,8,8,1,1,2,2,3,3,3,3,
4b,4,4,4,4,4,4,4,4,4,4,4,3,3,3,3,3,3,3,3,4,4,4,4,
3,3,2,2,1,1,8,8,7,7,6,6,5,5,4,4,5,5,6,6,7,7,7,7,
8b,,,,7,8,6,1,7,8,6,1,5b,,,,4,5,3,6,4,5,3,6,
2b,7,6,5,3b,8,7,6,4b,1,8,7,6b,3,2,1,7b,4,3,2,8b,5,4,3,
2h[12:1],8,7,6,5,6,7,8,1/2b,8,7/2b,6,2b,6,2,6,2,6,2,6,2,6,2,,
7h[12:1],1,2,3,4,3,2,1,8/7b,1,2/7b,3,7b,3,7,3,7,3,7,3,7,3,7,,
2b,8,3,7,4,6,5,7,4,8,3,1,2,8,1,7,1,8,3,1,2,6,8,7,
{96}1b,2,3,4,5,6,7,8,1,2,3,4,5,6,7,8,1,2,3,4,5,6,7,8,
1,2,3,4,5,6,7,8,1,2,3,4,5,6,7,8,1,2,3,4,5,6,7,8,
{36}1,,,,,,7,,2,3,,,,,,2,,7,6,,,5,,,4,,8,7,,,,,,2,,,
3,,,,,,8,,,1-5[12:1],,,2,,,3,,,,,,,,,,,,8,,,7,,,6,,2,
3h[12:3],,,,,,8,,7,6h[12:3],,,,,,8,,1,
2h[12:1],,,3h[12:1],,,4h[12:1],,,5h[12:1],,,6h[12:1],,,7h[12:1],,,
8h[12:3],,,6,,,5,,,4h[12:3],,,3,,,2,,,
1h[12:6],,,,,,5b,,,5b,,,,,,,,,,,,,,,,,,
{48}4,5,4,5,3,6,3,6,2,7,2,7,
1b,2,3,4,5,6,7,8,1,2,3,4,
8b,7,6,5,4,3,2,1,8,7,6,5,
1b,8,7,6,5,4,3,2,1,8,7,6,
8b,1,2,3,4,5,6,7,8,1,2,3,
1b,2,3,4,2,3,4,5,1,2,3,4,
8b,7,6,5,7,6,5,4,8,7,6,5,
3b,2,1,8,4,3,2,1,3,2,1,8,
6b,7,8,1,5,6,7,8,6,7,8,1,
7b,8,1,2,34,5,6,7,81,2,3,4,
15,8,7,6,45,3,2,1,78,6,5,4,
{24}3b,4b/2b,1b/5b,1b/8b,2b/7b,3b/6b,
5b/6b,4b/7b,3b/8b,4b/3b,5b/2b,6b/1b,
{48}1b,2,3,4,56,7,8,1,23,4,5,6,
8b,7,6,5,43,2,1,8,76,5,4,3,
1h[4:1],4,5,6,7,6,5,4,3,4,5,6,
7h[4:1],2,3,4,5,4,3,2,1,2,3,4,
5h[4:1],8,1,2,3,2,1,8,7,8,1,2,
3,4,5,6,37,48,15,26,3,4,5,6,
7h[4:1],5,4,3,2,3,4,5,6,5,4,3,
2h[4:1],6,5,4,3,4,5,6,7,6,5,4,
3h[48:3],1,8,7,6/4h[48:3],7,8,1,2/5h[48:3],1,8,7,
6,5,4,3,26,15,48,37,6,5,4,3,
2b,1,2,1,2,8,2,8,2,7,2,7,2b,6,2,6,2,5,2,5,2,4,2,4,
{24}2b,1b/3b,4b/8b,4b/5b,3b/6b,2b/7b,
7b/8b,6b/1b,5b/2b,1b/2b,8b/3b,7b/4b,
{48}5b,6,4,7,3,8,2,1,2,8,3,7,4,6,3,5,2,6,1,7,8,6,1,5,
1b,2,3,4,5,6,7,8,1,2,3,4,5,6,7,8,1,2,3,4,5,6,7,8,
(83)
{24}1,,,,,,2,,7,6,,,,,,7,,2,3,,,4,,,5,,1,2,,,,,,7,,,
6,,,,,,1,,,8,,,7,,,6,,,5h[8:3],,,,,,,,,,,,,,,3,,7,
6h[8:3],,,,,,1,,2,3h[8:3],,,,,,1,,8,
7h[8:1],,,6h[8:1],,,5h[8:1],,,4h[8:1],,,3h[8:1],,,2h[8:1],,,
1h[8:3],,,2,,,3,,,4h[8:3],,,5,,,6,,,
7h[8:6],,,,,,,,,2h[8:6],,,,,,,,,,,,,,,,,,,,,,,,,,,
{32}3b,5,4,6,4,5,2,4,3,7,5,6,1,4,3,8,5,6,1,3,2,8,6,7,
1b,2,38,7,26,3,47,6,51,2,38,7,26,3,47,6,
5/1b,2,3,4,5,6,7,8,1,,,,,,,,
