&title=次元通信
&artist=AnythingBecomeMoe
&first=0.15
&des=Aza
&lv_5=13
&inote_5=(150)
{1},{4}2x/7x,1x/8x,7x/8x,1x>4[8:1]/6x,{1}Ch[1:1],,
{16}2/5,,,3,,,6,6,4,,,5/7,,,6,6,4,,,3/5,,,2,2,4v7[8:1],,3<5[8:1],,{4},{16}6,,,5/7,,,6,6,4,,,3/5,,,2,2,{8}4<7[8:1],,3x,2x,{2}1x-5b[8:1],{16}7/4,,,6/2x,,,3,3,5,,,4/2,,,3,3,5,,,6/4,,,7,7,5v3[8:1],,6>4[8:1],,{4},{16}3,,,4/2,,,3,3,5,,,6/4,,,7,7,{8}5h[16:3],{16},6,5,,4/7^6z2[8:2],,{2}4/7,
{2}3<5[2:1],{12}E6/B5,,,,E7,,{4}E6/B5/3<5[2:1],,E7,E8,C/3<5[2:1],,{12}E6/B5,,,,E7,,{2}3<5[2:1]/E6/B5,C,{2}6-4b[2:1],{12}B3/A3,,,,E2,,{4}Ch[2:1]/6-4b[2:1],,{12},,,,E2,,{4}A3/B3/6-4b[2:1],,{12}C,,,,E2,,{2}6-4b[2:1]/A3/B3,Ch[4:1],
{4}2hx[8:1]/7hx[8:1],1hx[8:1]/8hx[8:1],7hx[8:1]/8hx[8:1],1hx[8:1]/6hx[8:1],{8}2x/7hx[8:1],3x,4x/8h[8:1],,{16}3,2,4,1,5,8,6,,{4}6/1b,2h[8:1]/6h[8:1],7h[8:1]/8h[8:1],6h[8:1]/1h[8:1],6h[8:1]/8h[8:1],6h[8:1]/2h[8:1],{8}7/8h[8:1],7,1/6h[8:1],1,{4}2h[8:1]/5q2[8:1],,4h[8:1]/7h[8:1],1h[8:1]/7h[8:1],2h[8:1]/6h[8:1],6h[8:1]/8h[8:1],{8}4/7h[8:1],{16}3,8,1hx[8:1],,7hx[8:1],,{4}4b,5h[8:1]/6h[8:1],3h[8:1]/6h[8:1],1h[8:1]/5h[8:1],3h[8:1]/7h[8:1],6pp5b[4:1]/5,,2h[8:3],1h[8:1],6h[8:1]/5h[8:1],4h[8:1]/8h[8:1],2h[8:1]/7h[8:1],2h[8:1]/3h[8:1],1x/4x,{16}2,3,1,4,8,5,{8}7,{4}4b/7b,7h[8:1]/8h[8:1],5h[8:1]/6h[8:1],2h[8:1]/8h[8:1],3h[8:1]/7h[8:1],7h[8:1]/8h[8:1],{8}6h[8:1]/5,5,8h[8:1]/2,2,{4}1/6v4[8:1],,8h[8:1]/3h[8:1],1h[8:1]/7h[8:1],5h[8:1]/1h[8:1],1h[8:1]/7h[8:1],{16}3/8h[8:1],,2,8,{8}1hx[8:1],7x,{4}3b/4b,4h[8:1]/7h[8:1],{16}5/6,,6,5,{8}7h[8:1],5,{4}3h[8:1]/4h[8:1],4qq5b[4:1]/8h[8:1],,{8}6,7,
{16}5x/8h[3:1],,,5h[4:1],{4},{16}7h[3:1],,,6h[4:1],{4},{16}7h[3:1],,,5h[4:1],{8},,6,5,6,7,{16}5x/8h[3:1],,,5h[4:1],{4},{16}7h[3:1],,,6h[4:1],{8},,7h[4:1],,6,5,4<6[8:1],,E5,,
{16}7/5,,6,,3/5,,2,2,4,,3,,3/5,,6,6,4,,7,,7/5,,6,6,4,,3/5,,2-8[8:1]/4,,3/5,,4,,5,,4/6,,7,7,5,,6,,4/6,,3,3,{16}5hx[8:1],,,4hx[8:1],,,3x,,{4}2<8[8:1]/4<6[8:1],2b/4b,
{2}7-1-6v5-3[2:7],6h[4:1],5h[4:1],4h[4:1],3h[4:1],2h[4:1],1h[4:1],8h[4:1],2-8-3v4-6b[2:7],3h[4:1],4h[4:1],5h[4:1],6h[4:1],7h[4:1],8h[4:1],Ch[4:1],
{4}2hx[8:1]/7hx[8:1],1hx[8:1]/8hx[8:1],7hx[8:1]/8hx[8:1],1hx[8:1]/6hx[8:1],{8}2x/7hx[8:1],3x,4x/8h[8:1],,{16}2,3,1,4,1,4,1,,{4}6/1b,2h[8:1]/6h[8:1],7h[8:1]/8h[8:1],6h[8:1]/1h[8:1],6h[8:1]/8h[8:1],6h[8:1]/2h[8:1],{8}7/8h[8:1],7,1/6h[8:1],{16}1x,1x,{4}2h[8:1]/5q2[8:1],,4h[8:1]/7h[8:1],1h[8:1]/7h[8:1],2h[8:1]/6h[8:1],6h[8:1]/8h[8:1],{8}4/7h[8:1],{16}3,8,1hx[8:1],,7hx[8:1],,{4}4b,5h[8:1]/6h[8:1],3h[8:1]/6h[8:1],1h[8:1]/5h[8:1],3h[8:1]/7h[8:1],6pp5b[4:1]/5,,{16}2x,2x,2x,2x,{4}1h[8:1]/2x,6h[8:1]/5h[8:1],4h[8:1]/8h[8:1],2h[8:1]/7h[8:1],2h[8:1]/3h[8:1],1x/4x,{16}2,3,1,4,1,4,{8}2,{4}4b/7b,{16}7h[8:1]/8h[8:1],,,5x/6x,,7x/8x,,5x/6x,{4}2h[8:1]/8h[8:1],3h[8:1]/7h[8:1],7h[8:1]/8h[8:1],{16}6h[8:3]/5b,,,5b,,,5b,,{4}1/6v4[8:1],,8h[8:1]/3h[8:1],1h[8:1]/7h[8:1],5h[8:1]/1h[8:1],1h[8:1]/7h[8:1],{16}3/8h[8:1],,2,8,{8}1hx[8:1],7x,{4}3b/4b,4h[8:1]/7h[8:1],{16}5/6,,6,5,{8}7h[8:1],5,{4}3h[8:1]/4h[8:1],4qq5b[4:1]/8h[8:1],,{16}6,7,8,1,{1}2-7^6-3^5[2:3],,
{12}6h[4:1],,5,5,,7/4,7/4,,6,5,6h[12:11],,,,E7,,E8,,C,,E5,,E4,,3h[4:1],,4,4,,2/5,2/5,,3,4,3h[12:11],,,,2,2,2,,4,4,4,,2x/5x,,
{12}6h[4:1],,5,5,,4/7,4/7,,6,5,6h[12:11],,,,E6,B5,B4,,D3,,D4,,D5,,3h[4:1],,4,4,,2/5,2/5,,3,4,3h[12:11],,,,D4/E4,,D5/E5,,D6/E6,,D7/E7,,D8/E8,,6qq4q8[2:3],,2,2,,1,1,1,2,,2,,,,1,,2,,3,,4,,3,,3v8q4b[2:3],,5,5,,6,6,6,5,,5,,,,6,6,6,,7,,6,6,,,5q1v6[2:3],,4,4,,3,3,,4,4,4,,,,3,3,3,,2,,3,,4,,4>7v2b[4:7],,5,5,,,6,6,6,,6,,,,5,4,3v6[12:5],,{2},,,
{4}2hx[8:1]/7hx[8:1],1hx[8:1]/8hx[8:1],7hx[8:1]/8hx[8:1],1hx[8:1]/6hx[8:1],{8}2x/7hx[8:1],3x,4x/8h[8:1],,{16}2,3,1,4,8,5,7,6,{8}1b,,2/6,4x/5x,7/8,4x/5x,6/1,4x/5x,6/8,4x/5x,6/2,4x/5x,7/8,3x/4x,1/6,3x/4x,2v4[8:1]/5q2[8:1],,,,4/7,4x/5x,1/7,4x/5x,2/6,4x/5x,6/8,4x/5x,4/7,{16}3,1,{8}2/8,2x/8x,4b,,5/6,4x/5x,3/6,4x/5x,1/5,4x/5x,3/7,4x/5x,6pp5b[4:1]/5,4xv2b[8:1]/5x,{2},{8}1/2,4x/5x,6/5,4x/5x,4/8,4x/5x,2/7,4x/5x,2/3,4x/5x,1/4,,{16}2,3,1,4,8,5,7,6,{8}4b,,7/8,4x/5x,5/6,4x/5x,2/8,4x/5x,3/7,4x/5x,7/8,4x/5x,6/5,3x/4x,3/8,4x/3x,{2}1v7[8:1]/6v7[8:1],{8}3/8,4x/5x,1/7,4x/5x,1/5,4x/5x,1h[8:1]/7h[8:1],,3/8,{16}2,7,{8}1,1/7,3b/4b,4x/5x,4/7,4x/5x,{16}6,4,5,4,{8}6,4x/5x,{8}3/4,4x/5x,4qq5b[4:1]/8,4x/5xv7b[8:1],{2},
{8}1h[4:1]/6h[4:1],,,2/4,{16}3/5,,,3/5,,,2/6,,3h[4:1]/7,,,,,,,,2,3,1,4,8,5,7,6,{8}1b,2,3/5,6,5/7,6,3/5,2,1h[8:1]/4,,2/8,2/8,3/7,{16}5/6,5/6,,3/4,3/4,,{2}2x-7[8:1]/5xv7[8:1],{8}5/6,4/5,3/4,4/5,5/6,4/7,5/6-1[8:1],,,E3/B3,E5/B5,E7/B7,2/5<8[8:1],,,3x,1/2,1/8,8/7,1/8,{4}1/2h[4:1],6-4b[8:1],
