&title=Mystic Light Quest
&artist=塞壬唱片
&first=0.12
&des=bLUe1nK
&lv_6=14
&inote_6=(160)
{16}
,,,,,,,,,,,,,,,,,,,,,,,,,,,,,,,,,,,,,,,,,,,,,,,,,,,,,,,,,,,,,,,,
4h[16:3],,5,,3h[16:3],,4,,6h[16:3],,5,,2h[16:3],,4,,7h[16:3],,5,,1h[16:3],,6,,8h[16:3],,4,,
81,,82,,83,,73,,63,,53,,53,,43,,12,,78,,
{12}
75,6,6,
{16}
6,7x-3[320#16:2],,8x-4[320#16:2],,1x-5[320#16:2],
,,,,,,
8h[16:4]/7,,,,,,7,,7/6h[16:4],,,,5,,4,,3,,,,,,2qq8[16:2],,3,,1,,A8,,,,
1h[16:4]/2,,,,,,2,,2/3h[16:4],,,,4,,5,,6h[16:2],,5,,76,,56,,64,,,,,,,,
4h[16:4]/3,,,,,,3,,3/2h[16:4],,,,1,,8,,7,,,,,,6q4[16:2],,7,,5,,A4,,,,
5h[16:4]/6,,,,,,6,,6/7h[16:4],,,,8,,1,,2h[16:2],,1,,32,,12,,2-5[16:1]-1[16:1]/8-5[16:1]-1[16:1]
,,,,,,,,
52,,,3,4,,3,,2-7[16:2],,4,,4,,,,2-7[16:2],,4,,4,,,,2-7[16:2],,4,,4,,,,
47,,,6,5,,6,,7-3[16:2],,5,,5,,,,7-1[16:2],,5,,5,,,,7-2[16:2],,5,,5,,,,
83,,,2,1,,2,,3<5[16:2],,1,,1,,,,3-6[16:2],,1,,1,,,,3-7[16:2],,1,,1,,,,
16,,,7,8,,7,,6-3[16:2],,8,,8,,,,8-2[16:2],,,,7-3[16:2],,,,6b,,,,,,,,
4V28[16:8],,,,4h[16:4],,
,,,,5,,5,,6h[16:6],,,,,,8,,1,,2,,3,,3h[16:4],,,,5-8[16:8],,,,
5h[16:4],,,,1,,1,,2h[16:8],,6,,,,6,,7,,8,,1,,2,,3,,,,
5,,54,,5,,6,,3,,34,,3,,2,,7,,75,,7,,6,,1h[16:4],,,,5,,,,
75,,6,,6,,6,,53,,4,,4,,4,,7hb[16:4]/8,,,,8/1hb[16:4],,,,8hb[16:4]/2hb[16:4],,,,,,C,,
5/3-8[16:2],,,4,3,,45,,6-8[16:2],,,5,6,,45,,
1>4[16:2],,8<5[16:2],,1-5[16:2],,8,,1,,Ch[16:2],,,,81,,2v5[16:2],,,1,2,,7,,6q1[16:4],,,3,6,,2,,
4,,4,,5,,5,,8,,E1/E2/E3/B1/B2,,E1/E2/E3/B1/B2,,,,
8h[16:2]/1,,1,,1h[16:2]/2,,2,,2h[16:2]/3,
,3,,3h[16:2]/4,,4,,
4h[16:2]/5,,5,,5h[16:2]/6,,6,,7,,7,,8,,8
,,
7h[16:2]/6h[16:2],,,,2h[16:2]/3h[16:2],,,,
{12}
8,8,8,3,3,3,
{32}
1bx/8hx[16:2],2,3,4,,,,,
8bx/1hx[16:2],7,6,5,,,,,
8bx/1bx,2,3,4,5,6,7,8,1b,,,,,,,,
{16}
83,,2,1,2,,73,,5,,5,,2h[16:4],,,,
1q5[16:2]/5q1[16:2],,,,1<6[16:2]/5>2[16:2],,,,1q5[16:2]/5q1[16:2],,,,51,,,,
8-2[16:2],,,,3-7[16:2],,,,6-4[16:2],,,,1,,,,1>1[16:8],,,,,,7x,,1x,,3x,,5x,,,,
16,,7,8,7,,26,,4,,4,,6h[16:4]/1h[16:4],,,
{32}
,27,8h[16:4]/3h[16:4],,,,,,,72,1h[16:4]/6h[16:4],,,,,,
,27,8h[16:4]/3h[16:4],,,,,,,72,1h[16:4]/6h[16:4],,,,,,,,
{16}
8-5[16:2]/2,,,,8-3[16:2]/6,,,,
8-4b[16:2]/1,,,,8w4[16:2],,,,8bx>3[16:2]/8bx<5[16:2],,,,8bxw4b[16:2],,,,8bx,,,,7bx/1bx,,,,
3,,3,5,4,,45,,6,,7,,8,,,,
1-7[16:2],,,,1-3[16:2],,,,1-5[16:2],,,,
8-2[16:2],,,,3-7[16:2],,,,6-4[16:2],,,,8-2[16:2],,,,3-7[16:2],,,,6-4[16:2],,,,
8,,1,,2,,3,,4,,,,
6,,6,4,5,,54,,3,,2,,1,,,,8<5[16:4]<8[16:4]<5[16:4],,,,1,,,,4,,,,1,,,,
2,,2,4,3,,53,,7,,7,5,6,,46,,
{32}
3b,2,1,8,7,,,,6b,7,8,1,2,,,,4b/5b,63,72,81,,,,,Ch[16:2],,,,,,,,
{16}
85,,2h,7,4,,71,,84,,6h,7,4,,15,,72,,3,4,5,,74,,85,74,63,52,41,,41,,61,,8,1,8,,62,,1,,7,1,8,,62,,
{32}
1b,2,3,4,,,,,8b,7,6,5,,,,,7b/8b,61,52,43,,,,,2b/1b,38,47,56,,,,,
{16}
71,,8-4[16:2],1,2,,83,,52,,3-6[16:2],4,5,,13,,
{32}
8bx,1,2,3,,,,,1bx,8,7,6,,,,,
2bx,3,4,5,,,,,3bx,4,5,6,,,,,
{16}
74,,2h,8,4,,6,,6,,4,5,4,5,4,,23,,12,,81,,78,,72,,,,Cf,,,,
53,,2,,41,,1,,78,,7,,62,,4,,51,,6,,45,,3,,45,,2,,54,,3,,46,,
17,,6,,85,,5,,34,,3,,26,,8,,15,,2,,81,,7,,81,,6,,18,,7,,82,,
2,,1h,7,3,8,4,6,2,7,1,,,,84,,2h,3,7,6,3,4,6,5,3,2,1,,,,
3,4,2,,6,5,7,,3,2,1,,7,6,54,,,,78,,,,12,,,,63,,,,
81,,,3,4,,6h[16:2],,3,7,3,8,3,,,,6,2,6,1,6,,,,82,1,1,1,82,,,,
45,,,7,8,,2h[16:2],,7,3,7,4,7,,,,2,6,2,5,2,,,,46,5,5,5,46,,,,
3h[16:3]/4,,,4,2,,62,,17,,17,,2h[16:2]/6h[16:2],,,,1,,1,,1,,16,,6,,6,,6h[16:2],,,,
6h[16:3]/5,,,5,7,,37,,82,,82,,7h[16:2]/3h[16:2],,,,7hb[16:4]/Cf,,,,1hb[16:4]/Cf,,,,Cf/8b<1[16:128],,,,
,,,,,,,,,,,,,,,,,,,,,,,,,,,,,,,,,,,,,,,,,,,,,,,,,,,,,,,,,,,,,,,,,,,,,,,,,,,,,,,,,,,,,,,
,,,,,,,,,,,,,,,,,,,,,,,,,,,,,,,,,,,,,,,,,,,,,
7h[16:8],,,,4,,,,3,,,,3,,4h[16:4]/5h[16:4],,,,3,,6,,4,,5,,,,45,,,,
2h[16:4],,,,8,,,,7h[16:4],,,,8,,78,,,,76,,75,,74,,73,,72,,71,E2,B2,,
34,,3,,43,,1,,65,,6,,56,,8,,46,,5,,5,,46,,5,,5,,46,,,,3,,4,,3,,45,,6,,5,,6,,45,,
7x/8x,,,,1x/8x,,,,1x/2x,,C/B8/B7/B6/B5/B4/B3/B2/B1,,C/B8/B7/B6/B5/B4/B3/B2/B1,,,,
4x/5,,5h[16:3],3,2,,1x,,51,,
6h[16:3],4,3,,2x,,26,,
7h[16:8],5,4,3,2,1,8,,8,,8,,,,
1hx[16:2]/8h[16:2],,,1,2,3,4,,
8hx[16:2]/1h[16:2],,,8,7,6,5,,
45,,4,5,3,6,2,7,1,8,8x/1x,2x/7x,6x/3x,,,,
4h[16:2]/5,,5,,3h[16:2]/5,,5,,2h[16:2]/7,,7,,1h[16:2]/8,,8,,
5h[16:2]/4,,4,,6h[16:2]/4,,4,,7h[16:2]/2,,2,,8h[16:2]/1,,1,,
{12}
71,71,71,75,75,75,45,45,45,24,42,42,
{32}
1bx/8bxh,7x,6x,5x,,,,,1bxh/8bx,2x,3x,4x,,,,,1bx-4[16:2]/8bx-5[16:2],,,,,,,,8b/1b,,,,,,,,
{16}
3,,3,5,4,,45,,6,4,5,,46,,2,7,5,,41,,8,1,2,3,8-6[16:2]/4-2[16:2],,,,8x/4x,,,,
4>1[16:2],,,,4<7[16:2],,,,4w8[16:2],,,,4,,,,17,,71,62,53,4,5,,6,,7,,8,,,,
8h[16:8]/1h[16:2],,2,3,4,3,2,,17,6,5,4,3,,,,82,3,4,5,62,3,4,5,63,4,5,6,75,,,,
1>4[16:2]/4<7[16:2],,,,41,,,,8<5[16:2]/5>2[16:2],,,,58,,,,
1q5[16:2]/5q1[16:2],,,,1<6[16:2]/5>2[16:2],,,,1q5[16:2]/5q1[16:2],,,,51,,,,
45,,4,6,4,7,4,,45,,5,3,5,2,5,,18,7,6,5,74,6,5,4,63,5,4,3,5-1[16:2]/2<8[16:2],,,,
5<7[16:2]/2-6[16:2],,,,5>2[16:2]/2-5[16:2],,,,5<8[16:2]/2<7[16:2],,,,5-1[16:2]/2-6[16:2],,,,52,,,,
48,,6,,48,,2,,84,,,,
51,,3,6,2,,51,,1,6,1,5,1-3[16:2]/8-4[16:2],,,,
8-6[16:2]/1-5[16:2],,,,
1-3[16:2]/8-4[16:2],,,,
8-6[16:2]/1-5[16:2],,,,81,,,,
43,,3,,5,,56,,6,,46,,8,,82,,
8<6[16:2]/1-6[16:2],,,,
1>3[16:2]/8-3[16:2],,,,
8<6[16:2]/1-6[16:2],,,,
81,,,,
45,,3,4,2,,48,,6,5,7,,82,,3h,4,1,8,5,6,8,6,4,1,3,5,7,,
26,,53,,45,,3,2,1,,45,,63,,7,4,5,,84,,
1>3[16:2]/8,,,,1-4[16:2]/7,,,,6-8[16:2]/1-5[16:2],,,,16,,,,
2,,2,5,3,,4/3-1[16:2],,7,,73,6,5<7[16:2],,63,,5-8[16:2]/2,,,,2-6[16:2]/5,,,,2/5-1[16:2],,,,53,,3,,
4-1[16:2]/7,,3,,7-2[16:2]/4,,8,,3>8[16:2]/7,,2,,
6V82[16:2]/3,,5,,6/4q2[16:2],,3,,47,,6,,6/1-5[16:2],,,,18,,,,42,,4,3,4,5,4,,56,7,8,2,1,2,8,2,7b,
3,6,4,8b,3,1,2,3b,6,1,8,1b,5,3,8,2x,6,2,8,5,1,7,5,6,5,6,4,7,
4,7,3,8b,7,6,5,4b,3,2,1,8b,7,6,5,4b,,C/B3/B4/E4,,
8h[16:2],,71,62,53,,4,,35,,46,53,42,,1,,
8-4[16:2]/1,,,,1-5[16:2]/8,,,,
8-4[16:2]/1,,,,81,,2,,3b,8,2,6,1x,7,4,6,4x,5,4,5,4x,3,2,1,8x,7,6,5,4x,3,2,1,8-5[16:3]>1[16:10],,,
