&title=起死開戦
&artist=millsage
&first=-0.16
&des_5=orange
&lv_5=14+
&inote_5=(170)
{1},
{4},
{1}1v8-6[1:2]*-3[4:3],
{4},,
{8}E1,,,E3/B2,,,E5/B5/B4,,,,
{4}4>1[2:1],,,,8<5[2:1],,,,1s5[2:1],,,,
{6}7x,5x,3x,
{4}1x,8bxw4[4:3]b/Cf,
{1},
{16}26,,3,4,2,4,3,4,1-5[8:1],,,,1,8,,
{16}6,4x>1[8:1]*<7[8:1],,,,4b,,,,
{16}8,7,6,5,8,1,2,3,5V38[4:1],6,7,8,1/5,,,,
{8}7,6,5,5,
{16}41,,,62,,,3,5,1>5[4:1],,,,51,,,7,,,8,6,8,5,8,4,8,3,8,2,8,
{16}1,7,2,7,3,7,4qq5[8:3],6bpp5[8:3]b,,,,,,,,,,,,
{8}7/3h[1:1],,6,6,,5,5,,4,2,5,1h[8:3],6<3[8:3],,6,,
{8}4,5,6,3,4,5,4,5,6,3b-8[8:1]b/7b,,,
{8}6h[1:1],,3,3,,4,4,,
{16}5h[16:3],,,7h[16:3],,,4h[4:1],,,,8<5[8:1],,8,,,,
{16}2h[16:3],,,4h[16:3],,,6h[16:3],,,8h[16:3],,,
{16}1h[16:3],,,3,4,5,6b-1[8:1]b/2b,,,,,,
{4}3V52[4:1],7-3[8:1],7,1-6[8:1]*-4[8:1],1,
{8}37,,56,56,48,,
{4}6V47[4:1],2-6[8:1],2,8-3[8:1]*-5[8:1],8,
{16}4x,3x,2x,1x,8x,7x,8x,7x,8x-4[8:1]b,,,,
{16}8b/2b,Cf,,,1-6[8:1]*-5[8:1],,,,1b,B6f,,,
{4}3>8[8:1],7V51[4:1],2-4[8:1],2<5[4:1],,
{6}1b,2b/4,3b/6,
{4}4b/8>3[8:1],
{6}5b/8,6b,7b/4,
{4}8b/1pp4[4:3],
{16}5,,,5,,,,,,,,,7,,,7pp3[4:3],
{2},
{16}4,,,4,,,5,,5pp3[4:3],,,,1,,,1,,,8,,8,,,,
{16}7h[8:1],,2,8,1,8,2h[8:1],,5,3,4,3,5h[8:1],,
{16}4,6,5,6,4h[8:1],,7,5,6,5,8,4,5,4,6,5,
{8}7bxs3[8:3]b,,,1bxs5[8:3]b,,,,
{16}8h[4:1],,,,
{16}6,5,4-1[4:1],,
{8},,,,,,
{16}7,6,5-2[4:1],,,,,,,,,,,,,,1,8,7-4[4:1],,,,
{8},,,,,
{16}2,1,8-5[4:1],,,,4,,,,3,,3h[4:1],,,,
{8}5bh[8:1],,5h[8:1],,5h[8:1]/2-4[8:1],,5h[8:1],,
{8}5h[8:1]/6-8[8:1],,5h[8:1],,
{8}14,14,25,25,
{16}3,6,5,6,8h[8:1],,7,3,4,3,1h[8:1],,
{16}2,5,4,7,1b-5qq3[2:1]b*-5pp7[2:1]b/Cf,,,,
{4},,,
{16}25,,3,4,2-6[8:1],,1,,7-4[8:1],,8,,1>4[8:1]*<6[8:1]/7,,,,
{8}1-5[8:1],,1,,
{16}47,,6,5,7-3[8:1],,8,,71,,,,4-8[8:1]b,6,2,8,
{2}4,
{16}7bh[16:3]/E6f/A5,,,1b,,,2bh[16:3]/E4f/A4,,,8b,,,
{16}1/7,6,5,4,8,7,6,5,4,3,2,1,8/7-3[8:1]*-5[8:1],,,,7b,,,,
{16}2-6-3[4:1]b,4,2,4,2b,,
{8}8-4[8:1],,8b,,,
{8}2-5[8:1]b/6-1[8:1]b,37,
{16}2b/6b,Cf,,,
{8}8hx[4:1],,
{32}E4,E3,E2,E1,E8,E7,E6,E5,
{8}4x/7x,
{16}6,5,7<4[8:1],,8,,2-6[8:1]b,,1,,
{16}2b/8b-4[8:1]*z4[8:1],,,,8,,,,1<3[8:3]b/7,,5hx[4:1],,
{4},
{4}7hx[4:1],
{16}2,4,3,8,5,6,2h[8:1],,7,5,6,1,4,3,8V62[4:1]b,,5-1[8:1],,8b,,
{4},
{16}38,,,16,,,54,,5/4h[8:3],,,,,,
{8}6,5h[8:1],1,2h[8:1],4,1>4[8:1]/5<8[8:1],,1-6[8:1]/5v2[8:1],,,,
{8}4b/8b,,
{16}3,5,3,5,2h[8:1],,7,5,7,5,8h[8:1],,3,4,3,4,1h[8:1],,6,5,6,5,8h[8:1],,
{16}1,7,1,7,2,6,2,6,3,5,3,5,
{4}4bx-1<8[4:1]b*<5-8[4:1]b,,,
{16}7h[8:1],,3,5,,6,4,,35,,5,,2h[8:1],,7,8,,8,7,6,51,,2,,3/8,,
{16}7,,6h[8:1],,3,4,,4,3,,25,,37,,
{16}6,5,7,5,8h[8:1],,3,4,2,4,1h[8:1],,
{8}8b,26,
{16}1,6,5,8,3,4,1,6,2>5[8:1],,7,,2,,8,8h[16:2],,,
{16}6,7,5,6,4,5,3,4,2,5,
{32}1bx,2x,3hx[16:1],,,,8bx,7x,6hx[16:1],,,,2bx,3x,4hx[16:1],,
{16}7,,7,,6b/8b-4[16:1]b,,,6b-1[16:1],,,2b-5[16:1]b,,,8b<2[4:1],,,,,,,
{16}8b,,,17,,,26,,
{16}3,5,4,5,6,5,7,5,8bx>2-4<6[2:1]b,,,,
{4},,,
{4}7h[2:1],,4h[2:1],,
{32}8bx,D8,A7,D7,A6,,5bx,B5,C,B1,A1,,
{8}8b,8b<5[16:1]b,,
{32}1bx,D2,A2,D3,A3,,4bx,B4,C,B8,A8,,
{8}1b,1b-7v4[2:1]b,,
{16}7,6,5-1[4:1],,,,,,,,,,,,,,2,1,8-4[4:1],,,,,,
{4},
{4}5h[4:1],
{32}4bx,D4,A3,D3,A2,,1bx,B1,C,B5,A5,,
{8}4b,4b>1[16:1]b,,
{32}5bx,D6,A6,D7,A7,,8bx,B8,C,B4,A4,,
{8}5b,6bx<8-4[4:1]b/2bx,,
{4}1h[8:1],1h[8:1],5V74[4:1]/2h[8:1],2h[8:1],
{4}1>4[8:1]*<6[8:1],1,
{8}5,46,3V15[4:1]/7,2,8h[8:1],,8h[8:1],,7h[8:1]/4>2-5[4:1],,7h[8:1],,
{4}8-2[8:1]*-6[8:1],8-4[8:1],
{16}8b,C,,,
{4}2-5[8:1]b,
{16}2b/6b,E4f,,,8v3[8:1]*-4[8:1],,,,8b,B3f,,,
{4}6<1[8:1],2V48[4:1],7-5[8:1],7>4[4:1],,
{6}8b,7b/5,6b/3,
{4}5b/1<6[8:1],
{6}4b/1,3b,2b/5,
{4}1b/8,
{16}2,4,3,7,5,6,1,5,4,5,2,4,3,4,1,,2/8qq1[8:3],,3,,8bx/4,,,,
{24}5x,4x,3x,2hx[4:1],,,,,,1x,8x,7x,6hx[4:1],,,,,,
{16}4z8[4:1]b*-6v7[4:1]b,5,3,,,,,,,,,,
{16}6x,5,8,1x,4,3,5x,2,7,4,6x,1,8,2x,7,3,5x,1,
{8}6b,5h[4:1]/7,,8b,7/1h[4:1],,4b,3h[4:1]/5,,1b,2h[4:1]/8,,
{32}4,5,6,7,8-4[8:1]b,1,2,3,4,5,6,7,
{32}8bx,B8,Cf,B4,,,,,
{4},
{16}2b/6b,,,7,8,7,8,,1s5[4:1]/6,,,,,,6,7,8,,4<7[8:1]b,3,2,,4b,,
{16}1h[16:3],,,8-4[8:1],4,6,2,,,,1b>4[8:1]b,,,,
{16}5-1[8:1],,6,,,3,,,2-5[8:1],,7-3[8:1]b,,2-8[8:1],,7b,,2,,
{16}6,,6,5,7,,3,4,2-6[8:1],,8-4[8:1],,2<7[8:1],,8,,
{16}2-5[8:1]b,,5,,2b/6b,,,,7,8,1-5[8:1],,,,
{16}2,3,4>6[4:1]b,,,,
{32}1bx,B1,Cf,B5,,,,,
{4}E8/B7,E6/B5,B3/E4,B1/E2,
{8},
{8}8,8h[4:5],,
{4}E2/D2,D4/E4,D6/E6,D8/E8,
{16}A1,E1,E8,A7,D2,B1,B7,D7,A2,B2,B6,A6,D3,B3,B5,D6,A3,E4,E5,A5,
{4}Ch[16:1],,,
{1}1bxp5pp6[4:9]b*q5qq4[4:9]b/Cf,,,
{16}3bh[16:3]/E8f/A8,,,5b,,,6bh[16:3]/E2f/A1,,,4b,,,
{16}5/3,2,1,8,4,3,2,1,8,7,6,5,4/3-7[8:1]*-1[8:1],,,,3b,,,,
{4}4qq1[2:1]/8qq5[2:1]b,A8f/A4,,
{8},
{8}2-4[8:1]/6V83[4:1]b,,
{8}26,,,
{4}5hx[4:1],
{24}4x,3x,2x,1x,8x,7x,
{8}6x/4x,
{16}3,4,2-5[8:1],,1,,7-3[8:1]b,,
{8}8,7/4>1[8:1],,4<7[8:1]b,,4b/8b,,
{16}2-8v5[4:1]b,1,3,1,2,,,,
{24}6bx,7,8,1<6[8:1],,,,,,1bx/5bx,4,3,2>5[8:1]b,,,,,,1bx/2bx,8,7,6,,,
{16}8x-4[8:1],4,6,2,A8f,,,,
{16}51,,,83,,,46,,3/5h[8:3],,,,,,2,4,3h[8:1],,7,5,6h[8:1],,
{8}4,3-8[8:1]/7-4[8:1],,7>2[8:1]/3<6[8:1],,,,
{8}7b/3b,,
{16}2,4,2,7,5,7,1,,2/8h[4:1],,,,
{8}3V58[4:1],7V14[4:1],,,,,
{16}6b,,,1b/5b,,,4b/7b,,2b/5bh[8:3],,,,,,
{16}3,1,3,5,2,8,2,4,1,7-2[4:1],3-6[4:1]b,,,,,,,,,,
{16}1x/5x,4x/8x,3x/7x,2x/6x,1x/5x,,
{16}7,8,6,8,7h[8:1],,2,1,3,1,2h[8:1],,6,8,7,8,5h[8:1],,3,1,2,1,4h[8:1],,
{16}5,3,5,3,6,2,6,2,7,1,7,1,
{32}8bx<7<6>5>4[4:1]b*>1>2>3<4[4:1]b,B8,C,B4,A4,,,,
{2},
{16}3b,5,1,7,5,1,3,5,1,7,5,1,
{4}3>7[4:1],7<3[4:1],5s1[4:1]b,
{4},
{8}2,2,3-1[8:1]/8-4[8:1],,3b/8b,,
{16}7x,5,8,2x,4,1,7x,2,8,1x,6,5,8x,1,4,3x,7,4,5x,2,
{24}8x,7,6,4x,3,2,
{16}7bx/1bx,,,86,,,1/5-1[4:1],,
{2}2h[2:1]/4,
{4}8x-6[4:1],,2-8[4:1],,5q8[2:1],,1-4[4:1],,7-3[4:1],,
{4}2-8[4:1],8-6[4:1],6V42[2:1],8h[8:1],8,
{8}1b<7[8:1]b,4,1-6[8:1]b,3,1-5[8:1]b,2,1,,
{16}2,4,3,4,
{8}2-5[8:1],2,8-4[8:1],8,1-5[8:1],,18,,3-8[8:1]/7-4[8:1],,
{8}3b-6[8:1]b/7b-2[8:1]b,,3b/7b,,
{4}1bx/5bx,
{16}2,8,1,7,8,6,5,7,4,8,3,5,4,7,2,6,4,8,5,1,
{16}5b,4,3,2,8,7,6,5,4,3,2,1,4h[4:1]/8,,,,
{16}1x,5,8,4,7,3,6,2,5h[4:1],,,,
{24}3,4,3,4,3,4,3,4,3,4,3,4,3,4,3,4,3,4,
{4}3bxqq4[4:6]b,,,5pp4[4:3],,,,
{2},
E
